Heroine (2012)(Audio Cleaned) - SCam Rip - MPEG-PS.VOB

seeders: 0
leechers: 0
updated: 2 days ago
Added on Sep 21, 2012 by Telly_20155608 in Movies > Bollywood
Torrent verified. Downloaded 0 times.

Summary:
A female superstar struggles through the trials and tribulations of being a Bollywood actress.
Written by TheStrength54.75K
report summary
Available in versions: 720pDVDRipScreenerCam
Heroine (2012)(Audio Cleaned) - SCam Rip - MPEG-PS.VOB (Size: 740.66 MB)
  Heroine (2012)(Audio Cleaned) - SCam Rip - MPEG-PS.vob 740.66 MB

Description

Heroine (2012)(Audio Cleaned) - SCam Rip - MPEG-PS.VOB
image
image
image
General
Format : MPEG-PS
File size : 741 MiB
Duration : 2h 22mn
Overall bit rate mode : Variable
Overall bit rate : 727 Kbps
Video #224
ID : 224 (0xE0)
Format : MPEG Video
Format version : Version 2
Format profile : Main@Main
Format settings, BVOP : Yes
Format settings, Matrix : Default
Format settings, GOP : M=3, N=13
Duration : 2h 22mn
Bit rate mode : Variable
Bit rate : 584 Kbps
Maximum bit rate : 9 672 Kbps
Width : 352 pixels
Height : 288 pixels
Display aspect ratio : 4:3
Frame rate : 25.000 fps
Standard : PAL
Color space : YUV
Chroma subsampling : 4:2:0
Bit depth : 8 bits
Scan type : Progressive
Compression mode : Lossy
Bits/(Pixel*Frame) : 0.231
Stream size : 595 MiB (80%)
Stream size : 599 MiB (87%)
image
Audio #192
ID : 192 (0xC0)
Format : MPEG Audio
Format version : Version 1
Format profile : Layer 2
Duration : 2h 22mn
Bit rate mode : Constant
Bit rate : 128 Kbps
Channel(s) : 2 channels
Sampling rate : 48.0 KHz
Compression mode : Lossy
Stream size : 130 MiB (18%)
Thumbnails
image
image

Related Torrents

torrent name size files age seed leech

Sharing Widget


Download torrent
740.66 MB
seeders:1
leechers:0
Heroine (2012)(Audio Cleaned) - SCam Rip - MPEG-PS.VOB



To share this torrent use the code below and insert it into comments, status messages, forum posts or your signature.

Torrent: Heroine (2012)(Audio Cleaned) - SCam Rip - MPEG-PS.VOB

Trackers

tracker name Status
udp://tracker.1337x.org:80/announce
active
udp://tracker.publicbt.com:80/announce
active
http://tracker.istole.it/announce
active
udp://tracker.openbittorrent.com:80/announce
active
udp://tracker.istole.it:80/announce
active
http://desidhamal.com:2710/pcstfk4vqxwugd3y7ja770ffqqat2orr/announce
active
http://exodus.desync.com:6969/announce
blocked
udp://fr33dom.h33t.com:3310/announce
deleted
http://tracker.publicbt.com/announce
deleted
udp://fr33domtracker.h33t.com:3310/announce
deleted
ĀµTorrent compatible trackers list

Locations

name
KickassTorrents
ExtraTorrent
Torrent hash: 9E77D98D866DE2A13B45C01A7401ABF1329768F1

Top Comments

4
ohhww50 • 21 Sep 2012, 23:23
torrent downloaded
Okey quality, thx for the Up.imageimageimage
2
anonymous • 22 Sep 2012, 09:19
audio: 10video: 10
for 1st day it's awesome
2
Samtapes45.14K • 23 Sep 2012, 10:54
torrent downloaded
audio: 6video: 5
watchable thanks

All Comments

audio
5/10
video
6/10
please, leave only comments related to that torrent
or sign-in

0
Kuki137943 • 17 Oct 2012, 06:37 Show comment
Watchable, good movie,
0
anonymous • 28 Sep 2012, 10:13 Show comment
hii..tapessam
0
Mubashirr270 • 27 Sep 2012, 13:45
torrent downloaded
Show comment
audio: 7video: 8
Average
0
friekyhero818 • 24 Sep 2012, 15:13
torrent downloaded
Show comment
audio: 1video: 2
Useless. Its audio is not clean even though its name is audio cleaned...u can hear audience shouting every now & then
Show More All
0
HopenDarkness74.74K • 11 Oct 2013, 16:07
torrent downloaded
Show comment
audio: 5video: 6
0
abjex99.58K • 25 Jul 2013, 11:43 Show comment
audio: 6video: 6
0
GS_Jr.1614 • 01 Jun 2013, 20:47
torrent downloaded
Show comment
audio: 5video: 5
0
dhard71379 • 09 Oct 2012, 04:39
torrent downloaded
Show comment
audio: 4video: 6
0
achilles471670 • 26 Sep 2012, 11:22
torrent downloaded
Show comment
audio: 7video: 6

User Opinions

Samtapes45.14K, dead_113.17K, Team_xRG9540, Trinity11003954, aceg153419, IRU10499, khush_dandona121, Xpress l94, salman32111, zambrota2 ... And 63 more
Bazinga!3254, ChakryBobby2268, value$$$1183, BoostSamurai939, mo2610!403, zoom3030221, sunny614176, vinit_shah169, adnan_ahmed112, pumpkinpatch1505110 ... And 25 more
Report a bug