Happy Feet Two (2011) READNFO CAM x264-BBnRG

seeders: 0
leechers: 0
updated:
Added in Movies > Animation
Torrent verified. Downloaded 0 times.

Summary:

Mumble's son, Erik, is struggling to realize his talents in the Emperor Penguin world. Meanwhile, Mumble and his family and friends discover a new threat their home -- one that will take everyone working together to save them.

Written by Anette14150.4K
Happy Feet Two (2011) READNFO CAM x264-BBnRG (Size: 534.95 MB)
  BBnRG-NFO.nfo 18.42 KB
  Happy Feet Two (2011) READNFO CAM x264-BBnRG.mp4 526.74 MB
  HFT-SAMPLE-BBnRG.mp4 6.01 MB
  READ this before playing the Movie.txt 473 bytes
  www.Torrenting.com.txt 473 bytes
  Screenshots + Cover

Description

.

http://www.{spam link removed} : Once & For all ;)


www . Torrenting . Com

(((((((((((((= Enjoy No RAR releases =))))))))))))))))))))


...................................NFO:....................................

.

◘◘◘◘◘◘◘◘◘◘◘◘◘◘◘◘◘◘◘◘◘◘◘◘◘◘◘◘◘◘◘◘◘◘◘◘◘◘◘◘◘◘◘◘◘◘◘◘◘◘◘◘◘◘◘◘◘◘◘◘◘◘◘◘◘◘◘◘◘◘◘◘◘◘◘◘
◘◘◘◘◘◘◘◘◘◘◘◘◘◘◘◘◘◘◘◘◘◘◘◘◘◘◘◘◘◘◘◘◘◘◘◘◘◘◘◘◘◘◘◘◘◘◘◘◘◘◘◘◘◘◘◘◘◘◘◘◘◘◘◘◘◘◘◘◘◘◘◘◘◘◘◘
◘◘◘◘
◘◘◘◘
◘◘ ◘◘
◘◘ ◘◘
◘◘ ◘◘
◘◘ ◘◘
◘◘ ◘◘
◘◘ ◘◘
◘◘ ◘◘
◘◘ ◘◘
◘◘ ◘◘
◘◘ ◘◘
◘◘ ◘◘
◘◘ ◘◘
◘◘ ◘◘
◘◘ ◘◘
◘◘ ◘◘
◘◘ ◘◘
◘◘ Enjoy Another Fine BBnRG Release... ◘◘
◘◘ ◘◘
◘◘ /--------------------------------------------------------------\ ◘◘
◘◘ (◘◘◘◘◘◘◘◘◘◘ Happy Feet Two (2011) READNFO CAM x264-BBnRG ◘◘◘◘◘◘◘◘) ◘◘
◘◘ \--------------------------------------------------------------/ ◘◘
◘◘ ◘◘
◘◘◘◘
◘◘◘◘
◘◘◘◘◘◘◘◘◘◘◘◘◘◘◘◘◘◘◘◘◘◘◘◘◘◘◘◘◘◘◘◘◘◘◘◘◘◘◘◘◘◘◘◘◘◘◘◘◘◘◘◘◘◘◘◘◘◘◘◘◘◘◘◘◘◘◘◘◘◘◘◘◘◘◘◘
◘◘◘◘◘◘◘◘◘◘◘◘◘◘◘◘◘◘◘◘◘◘◘◘◘◘◘◘◘◘◘◘◘◘◘◘◘◘◘◘◘◘◘◘◘◘◘◘◘◘◘◘◘◘◘◘◘◘◘◘◘◘◘◘◘◘◘◘◘◘◘◘◘◘◘◘
◘◘◘◘
◘◘◘◘
◘◘ ◘◘
◘◘ ◘◘
◘◘ ◘◘
◘◘ ◘◘
◘◘ ◘◘
◘◘ ◘◘
◘◘ ◘◘
◘◘ ◘◘
◘◘ ◘◘
◘◘ ◘◘
◘◘ ◘◘
◘◘ Format : MPEG-4 ◘◘
◘◘ Format profile : Base Media / Version 2 ◘◘
◘◘ Codec ID : mp42 ◘◘
◘◘ File size : 527 MiB ◘◘
◘◘ Duration : 1h 27mn ◘◘
◘◘ Overall bit rate : 842 Kbps ◘◘
◘◘ ◘◘
◘◘ Video ◘◘
◘◘ ID : 1 ◘◘
◘◘ Format : AVC ◘◘
◘◘ Format/Info : Advanced Video Codec ◘◘
◘◘ Format profile : High@L2.1 ◘◘
◘◘ Format settings, CABAC : Yes ◘◘
◘◘ Format settings, ReFrames : 4 frames ◘◘
◘◘ Codec ID : avc1 ◘◘
◘◘ Codec ID/Info : Advanced Video Coding ◘◘
◘◘ Duration : 1h 27mn ◘◘
◘◘ Bit rate mode : Variable ◘◘
◘◘ Bit rate : 675 Kbps ◘◘
◘◘ Width : 688 pixels ◘◘
◘◘ Height : 288 pixels ◘◘
◘◘ Display aspect ratio : 2.35:1 ◘◘
◘◘ Original display aspect ratio : 2.35:1 ◘◘
◘◘ Frame rate mode : Variable ◘◘
◘◘ Frame rate : 23.976 fps ◘◘
◘◘ Minimum frame rate : 23.974 fps ◘◘
◘◘ Maximum frame rate : 23.981 fps ◘◘
◘◘ Color space : YUV ◘◘
◘◘ Chroma subsampling : 4:2:0 ◘◘
◘◘ Bit depth : 8 bits ◘◘
◘◘ Scan type : Progressive ◘◘
◘◘ Bits/(Pixel*Frame) : 0.142 ◘◘
◘◘ Stream size : 424 MiB (80%) ◘◘
◘◘ Writing library : x264 core 112 ◘◘
◘◘ ◘◘
◘◘ Audio ◘◘
◘◘ ID : 2 ◘◘
◘◘ Format : AAC ◘◘
◘◘ Format/Info : Advanced Audio Codec ◘◘
◘◘ Format profile : LC ◘◘
◘◘ Codec ID : 40 ◘◘
◘◘ Duration : 1h 27mn ◘◘
◘◘ Bit rate mode : Variable ◘◘
◘◘ Bit rate : 160 Kbps ◘◘
◘◘ Maximum bit rate : 245 Kbps ◘◘
◘◘ Channel(s) : 2 channels ◘◘
◘◘ Channel positions : Front: L R ◘◘
◘◘ Sampling rate : 44.1 KHz ◘◘
◘◘ Compression mode : Lossy ◘◘
◘◘ Stream size : 100 MiB (19%) ◘◘
◘◘ ◘◘
◘◘◘◘
◘◘◘◘
◘◘◘◘◘◘◘◘◘◘◘◘◘◘◘◘◘◘◘◘◘◘◘◘◘◘◘◘◘◘◘◘◘◘◘◘◘◘◘◘◘◘◘◘◘◘◘◘◘◘◘◘◘◘◘◘◘◘◘◘◘◘◘◘◘◘◘◘◘◘◘◘◘◘◘◘
◘◘◘◘◘◘◘◘◘◘◘◘◘◘◘◘◘◘◘◘◘◘◘◘◘◘◘◘◘◘◘◘◘◘◘◘◘◘◘◘◘◘◘◘◘◘◘◘◘◘◘◘◘◘◘◘◘◘◘◘◘◘◘◘◘◘◘◘◘◘◘◘◘◘◘◘
◘◘◘◘
◘◘◘◘
◘◘ ◘◘
◘◘ ◘◘
◘◘ ◘◘
◘◘ ◘◘
◘◘ ◘◘
◘◘ ◘◘
◘◘ ◘◘
◘◘ ◘◘
◘◘ ◘◘
◘◘ ◘◘
◘◘ ◘◘
◘◘ Happy Feet Two (2011) ◘◘
◘◘ Mumble's son, Erik, is struggling to realize his talents in the ◘◘
◘◘ Emperor Penguin world. Meanwhile, Mumble and his family and friends◘◘
◘◘ discover a new threat their home -- one that will take everyone ◘◘
◘◘ working together to save them. ◘◘
◘◘ ◘◘
◘◘ ◘◘
◘◘ ◘◘
◘◘ ◘◘
◘◘ 5.8/10 ◘◘
◘◘ 1,350 Votes. ◘◘
◘◘ ◘◘
◘◘ ◘◘
◘◘ ◘◘
◘◘ ◘◘
◘◘ http://www.imdb.com/title/tt1402488/ ◘◘
◘◘ ◘◘
◘◘ ◘◘
◘◘ ◘◘
◘◘◘◘
◘◘◘◘
◘◘◘◘◘◘◘◘◘◘◘◘◘◘◘◘◘◘◘◘◘◘◘◘◘◘◘◘◘◘◘◘◘◘◘◘◘◘◘◘◘◘◘◘◘◘◘◘◘◘◘◘◘◘◘◘◘◘◘◘◘◘◘◘◘◘◘◘◘◘◘◘◘◘◘◘
◘◘◘◘◘◘◘◘◘◘◘◘◘◘◘◘◘◘◘◘◘◘◘◘◘◘◘◘◘◘◘◘◘◘◘◘◘◘◘◘◘◘◘◘◘◘◘◘◘◘◘◘◘◘◘◘◘◘◘◘◘◘◘◘◘◘◘◘◘◘◘◘◘◘◘◘
◘◘◘◘
◘◘◘◘
◘◘ ◘◘
◘◘ ◘◘
◘◘ ◘◘
◘◘ ◘◘
◘◘ ◘◘
◘◘ ◘◘
◘◘ ◘◘
◘&#

Related Torrents

torrent name size files age seed leech

Sharing Widget


Download torrent
534.95 MB
seeders:0
leechers:0
Happy Feet Two (2011) READNFO CAM x264-BBnRG



To share this torrent use the code below and insert it into comments, status messages, forum posts or your signature.

Torrent: Happy Feet Two (2011) READNFO CAM x264-BBnRG

Trackers

tracker name
udp://tracker.publicbt.com:80/announce
http://tracker.openbittorrent.com/announce
udp://tracker.openbittorrent.com:80/announce
http://exodus.desync.com:6969/announce
http://tracker.publicbt.com/announce
µTorrent compatible trackers list

Locations

name
ThePirateBay
Fenopy
Limetorrents
Torrent hash: 10690d7a54174691e5a75e7b9577efeaf9531cd8

All Comments

audio
5/10
video
5/10
please, leave only comments related to that torrent
Sign In

audio: 3video: 2
I don't mind cams but,if this not your first time,you need to tweak your equipment.
thanks anyway
audio: 7video: 7
Downloaded the sample but it was weird the video and audio. I'll wait for a better copy..
Thanks, at least I can watch this ahead of ma folks, the much awaited happy feet two.
audio: 8video: 8
Like the cooldude says
first two minutes out of focus (3d) then clears up
Many thanks 8/10 for both
can someone download and tell me if its worth it
The movie downloaded fast,,the first minute is fuzzy but is ok after that....

User Opinions

VJ19751421, oryonix489, pocketgnome352, Knuckles316318, therich300, glennhawaii266, cowboy208177, tanjo129, status187122, cjflourish91 ... And 10 more
VonDutch692037, muki4187, hectorleger40
Report a bug