Godzilla vs Biollante (1989)

seeders: 3
leechers: 0
updated:
Added in Movies
Torrent verified. Downloaded 10 times.

Summary:

After rising from his volcanic grave, Godzilla is threatened by a mutated rosebush.

Written by Crazy_Horse31.82K
Available in versions: 1080p
Godzilla vs Biollante (1989) (Size: 1.8 GB)
  DVD_VOLUME.Title1.avi 1.8 GB
  DVD_VOLUME.Title1.sub 1.63 MB
  DVD_VOLUME.Title1.idx 31.26 KB

Description

Godzilla vs Biollante (1989) DVDRip Original Japanese version

http://www.imdb.com/title/tt0097444/
General
Complete name : Godzilla vs Biollante (1989)DVD_VOLUME.Title1.avi
Format : AVI
Format/Info : Audio Video Interleave
File size : 1.80 GiB
Duration : 1h 44mn
Overall bit rate : 2 460 Kbps
Movie name : DVD_VOLUME.Title1.DVDRip
Writing application : Lavf52.33.0
Original source form/Name : DVD_VOLUME

Video
ID : 0
Format : MPEG-4 Visual
Format profile : Simple@L3
Format settings, BVOP : No
Format settings, QPel : No
Format settings, GMC : No warppoints
Format settings, Matrix : Default (H.263)
Codec ID : XVID
Codec ID/Hint : XviD
Duration : 1h 44mn
Bit rate : 2000 Kbps
Width : 720 pixels
Height : 406 pixels
Display aspect ratio : 16:9
Frame rate : 29.970 fps
Resolution : 24 bits
Colorimetry : 4:2:0
Scan type : Progressive
Bits/(Pixel*Frame) : 0.228
Stream size : 1.46 GiB (81%)
Writing library : XviD 1.2.1 (UTC 2008-12-04)

Audio
ID : 1
Format : AC-3
Format/Info : Audio Coding 3
Codec ID : 2000
Duration : 1h 44mn
Bit rate mode : Constant
Bit rate : 448 Kbps
Channel(s) : 6 channels
Channel positions : Front: L C R, Surround: L R, LFE
Sampling rate : 48.0 KHz
Stream size : 335 MiB (18%)
Alignment : Aligned on interleaves
Interleave, duration : 32 ms (0.96 video frame)

Related Torrents

torrent name size files age seed leech

Sharing Widget


Download torrent
1.8 GB
seeders:3
leechers:0
Godzilla vs Biollante (1989)



To share this torrent use the code below and insert it into comments, status messages, forum posts or your signature.

Torrent: Godzilla vs Biollante (1989)

Trackers

tracker name
udp://tracker.openbittorrent.com:80/announce
udp://tracker.publicbt.com:80/announce
http://tracker.openbittorrent.com/announce
http://tracker.publicbt.com/announce
µTorrent compatible trackers list

Locations

name
ThePirateBay
Torrent hash: e4c894b19d8de152c981e4801e96313666cf1289

All Comments

audio
8/10
video
7/10
please, leave only comments related to that torrent
Sign In

seeds have left the building
audio: 7video: 7
It is decent video quality and is the japanese version with english subtitles.
This other torrent is english dubbed, but has slightly lower video quality.
Can't get the subtitle file to open in any player I have.
maybe try wondershare video converter?

whoever you are..many thanks
audio: 9video: 8
I love you.shy

User Opinions

Report a bug