Girls Gone Dead.2012.UNRATED.HDRip.XviD.HS

seeders: 1
leechers: 1
updated:
Added by Hackullus42.6K in Movies
Torrent verified. Downloaded 16 times.

Summary:

A group of six ex-high school cheerleaders are stalked by a killer with a medieval war hammer and battle axe during their first Spring Break from college.

Written by Sarky_Noize15.62K
Available in versions: 1080pHDRiPDVDRip
Girls Gone Dead.2012.UNRATED.HDRip.XviD.HS (Size: 1.84 GB)
  Girls Gone Dead.2012.UNRATED.HDRip.XviD.HS.avi 1.84 GB
  Torrent downloaded from AhaShare.com.txt 59 bytes
  Torrent downloaded from Demonoid.me.txt 46 bytes
  Torrent downloaded from extratorrent.com.txt 40 bytes
  Torrent downloaded from Rarbg.com.txt 33 bytes
  torrent downloaded from H33T.com.txt 32 bytes

Description

image


Girls Gone Dead 2012 UNRATED HDRip XviD HS


Source--- Who Else



http://www.imdb.com/title/tt1884318/



Format : AVI
Format/Info : Audio Video Interleave
Format profile : OpenDML
File size : 1.84 GiB
Duration : 1h 43mn
Overall bit rate : 2 544 Kbps
Writing application : Lavf52.103.0

Video
ID : 1
Format : MPEG-4 Visual
Format profile : Simple@L1
Format settings, BVOP : No
Format settings, QPel : No
Format settings, GMC : No warppoints
Format settings, Matrix : Default (H.263)
Codec ID : XVID
Duration : 1h 43mn
Bit rate : 2 404 Kbps
Width : 640 pixels
Height : 274 pixels
Display aspect ratio : 2.35:1
Frame rate : 23.976 fps
Color space : YUV
Chroma subsampling : 4:2:0
Bit depth : 8 bits
Scan type : Progressive
Compression mode : Lossy
Bits/(Pixel*Frame) : 0.572
Stream size : 1.74 GiB (94%)
Writing library : Lavc52.116.0

Audio
ID : 0
Format : MPEG Audio
Format version : Version 1
Format profile : Layer 3
Mode : Joint stereo
Mode extension : MS Stereo
Codec ID : 55
Codec ID/Hint : MP3
Duration : 1h 43mn
Bit rate mode : Constant
Bit rate : 128 Kbps
Channel(s) : 2 channels
Sampling rate : 44.1 KHz
Compression mode : Lossy
Stream size : 94.8 MiB (5%)
Alignment : Aligned on interleaves
Interleave, duration : 42 ms (1.00 video frame)
Writing library : LAME3.98.4

image
image
image
image

Related Torrents

torrent name size files age seed leech

Sharing Widget


Download torrent
1.84 GB
seeders:1
leechers:1
Girls Gone Dead.2012.UNRATED.HDRip.XviD.HS



To share this torrent use the code below and insert it into comments, status messages, forum posts or your signature.

Torrent: Girls Gone Dead.2012.UNRATED.HDRip.XviD.HS

Trackers

tracker name
udp://9.rarbg.com:2710/announce
udp://tracker.openbittorrent.com:80/announce
udp://tracker.istole.it:80/announce
udp://tracker.publicbt.com:80/announce
http://inferno.demonoid.me:3390/announce
http://tracker.istole.it/announce
udp://11.rarbg.com:80/announce
http://tracker.publicbt.com/announce
udp://fr33domtracker.h33t.com:3310/announce
udp://10.rarbg.com:80/announce
µTorrent compatible trackers list

Locations

name
KickassTorrents
Torrent hash: 572ABD504A3493FCEFB30401C942445B5084F8EA

All Comments

audio
8/10
video
8/10
please, leave only comments related to that torrent
Sign In

in the spank bank
audio: 9video: 9
geat quality worst film ever !!
Great movie i love this movie u should watch this what a movie
audio: 10video: 10
verry fappable
Quality is fine. Movie sucks!
Show More All

User Opinions

capitolfi14.81K, rayron7665, ViKTORIOUS3734, sideshow311480, NzmHkmT1088, MadNesSGp949, Geordie21011504, KoodoriKyuuki303, Abudi295, DaHo139 ... And 18 more
filesh1222, Chrisboy67752, D3nn15303, Kenshinsama256
Report a bug