Ghost.Hunters.S07E13.Dark.Shadows.HDTV.XviD-tNe.avi

seeders: 1
leechers: 0
updated: 1 week ago
Added on Sep 8, 2011 by tNe58.57K in TV
Torrent verified. Downloaded 10 times.

  • View all Ghost Hunters episodes
  • Episode title: Dark Shadows
  • Episode: S07E13
  • Air date: 07 September 2011
  • IMDb link: 0426697
  • Original run: 06 October 2004 — Present
  • Summary:
    Ghost Hunters is an American paranormal reality television series that premiered on October 6, 2004, on Syfy. The program features paranormal investigators Jason Hawes and Grant Wilson, who investigate places that are reported to be haunted.
    Written by Sizzler24.59K
    report summary
Ghost.Hunters.S07E13.Dark.Shadows.HDTV.XviD-tNe.avi (Size: 348.9 MB)
  Ghost.Hunters.S07E13.Dark.Shadows.HDTV.XviD-tNe.avi 348.9 MB

Description

Ghost Hunters - Dark Shadows

TAPS goes to Newport, RI to investigate Seaview Terrace, used as the exterior setting for the Gothic soap-opera Dark Shadows, where some say actual ghosts rattle the door handles and walk loudly across the floors.

Format : AVI
Format/Info : Audio Video Interleave
File size : 349 MiB
Duration : 42mn 59s
Overall bit rate : 1 135 Kbps
Writing application : VirtualDubMod 1.5.10.2 (build 2542/release)
Writing library : VirtualDubMod build 2542/release

Video
ID : 0
Format : MPEG-4 Visual
Format profile : Advanced Simple@L5
Format settings, BVOP : 2
Format settings, QPel : No
Format settings, GMC : No warppoints
Format settings, Matrix : Default (H.263)
Codec ID : XVID
Codec ID/Hint : XviD
Duration : 42mn 59s
Bit rate : 994 Kbps
Width : 624 pixels
Height : 352 pixels
Display aspect ratio : 16:9
Frame rate : 29.970 fps
Color space : YUV
Chroma subsampling : 4:2:0
Bit depth : 8 bits
Scan type : Progressive
Compression mode : Lossy
Bits/(Pixel*Frame) : 0.151
Stream size : 306 MiB (88%)
Writing library : XviD 64

Audio
ID : 1
Format : MPEG Audio
Format version : Version 1
Format profile : Layer 3
Mode : Joint stereo
Mode extension : MS Stereo
Codec ID : 55
Codec ID/Hint : MP3
Duration : 42mn 59s
Bit rate mode : Variable
Bit rate : 128 Kbps
Channel(s) : 2 channels
Sampling rate : 48.0 KHz
Compression mode : Lossy
Stream size : 38.8 MiB (11%)
Alignment : Aligned on interleaves
Interleave, duration : 24 ms (0.72 video frame)
Interleave, preload duration : 556 ms

Related Torrents

torrent name size files age seed leech

Sharing Widget


Download torrent
348.9 MB
seeders:1
leechers:0
Ghost.Hunters.S07E13.Dark.Shadows.HDTV.XviD-tNe.avi

Trackers

tracker name Status
http://secure.pow7.com/announce
outdated
udp://tracker.openbittorrent.com:80/announce
outdated
http://tracker.openbittorrent.com/announce
outdated
udp://tracker.1337x.org:80/announce
outdated
udp://tracker.publicbt.com:80/announce
outdated
http://announce.torrentsmd.com:6969/announce
blocked
http://tracker.publicbt.com/announce
deleted
µTorrent compatible trackers list

Locations

name
KickassTorrents
ThePirateBay
Limetorrents
Torrent hash: 5D0C7121AD5F9B9A798EF6E462AC18601710076A

All Comments

audio
9/10
video
9/10
please, leave only comments related to that torrent
or sign-in

0
MileHighNinja2612 • 26 Jan 2013, 01:01
torrent downloaded
Show comment
audio: 10video: 10
Thank you!
0
Violatrix123 • 04 Feb 2012, 02:58
torrent downloaded
Show comment
audio: 10video: 10
Seen on TV, not computer. Still GREAT quality! Thanks!
0
thamunsta6924 • 13 Nov 2011, 17:06
torrent downloaded
Show comment
audio: 9video: 9
THANKS
0
Big_Jiggity137 • 09 Oct 2011, 18:46 Show comment
audio: 10video: 10
good copy...ty uploader
Show More All
0
kitty1985188 • 27 Sep 2011, 00:38
torrent downloaded
Show comment
audio: 9video: 9

User Opinions

Bremanesk7374, kevhughes133116, Carsy-Smurf1618, darkzao1363, Morbid_Pixie1173, Parkerz706, jmp64454, jayman529425, matt2686331, kitty1985188 ... And 36 more
DashRamrod282
Report a bug