Game of Thrones S02E04 720p HDTV x264-AVS

seeders: 18
leechers: 4
updated:
Added by ChrisDen212.31K in TV
Torrent verified. Downloaded 2,863 times.

Available in versions: 1080p720p480pHDTVWEBRipx264x265
Game of Thrones S02E04 720p HDTV x264-AVS (Size: 1.24 GB)
  Game.of.Thrones.S02E04.720p.HDTV.x264-AVS.mkv 1.24 GB

Description

Game of Thrones - Season 02, Episode 04
HDTV x264 - AVS Release
April 23, 2012

Complete name : Game.of.Thrones.S02E04.720p.HDTV.x264-AVS/Game.of.Thrones.S02E04.720p.HDTV.x264-AVS.mkv
Format : Matroska
Format version : Version 2
File size : 1.24 GiB
Duration : 52mn 34s
Overall bit rate : 3 377 Kbps
Encoded date : UTC 2012-04-23 01:58:06
Writing application : mkvmerge v5.5.0 ( Healer ) built on Apr 6 2012 21:43:24
Writing library : libebml v1.2.3 libmatroska v1.3.0
Format : AVC
Format/Info : Advanced Video Codec
Format profile : High L4.1
Format settings, CABAC : Yes
Format settings, ReFrames : 5 frames
Muxing mode : Header stripping
Codec ID : VMPEG4/ISO/AVC
Duration : 52mn 34s
Bit rate : 2 926 Kbps
Width : 1 280 pixels
Height : 720 pixels
Display aspect ratio : 16:9
Frame rate : 23.976 fps
Color space : YUV
Chroma subsampling : 4:2:0
Bit depth : 8 bits
Scan type : Progressive
Bits/(Pixel Frame) : 0.132
Stream size : 1.07 GiB (87%)
Writing library : x264 core 122 r2184 5c85e0a
Language : English
Default : Yes
Forced : No
Format : AC-3
Format/Info : Audio Coding 3
Mode extension : CM (complete main)
Muxing mode : Header stripping
Codec ID : AAC3
Duration : 52mn 34s
Bit rate mode : Constant
Bit rate : 384 Kbps
Channel(s) : 2 channels
Channel positions : Front: L R
Sampling rate : 48.0 KHz
Bit depth : 16 bits
Compression mode : Lossy
Stream size : 144 MiB (11%)
Default : Yes
Forced : No

Related Torrents

torrent name size files age seed leech

Sharing Widget


Download torrent
1.24 GB
seeders:18
leechers:4
Game of Thrones S02E04 720p HDTV x264-AVS



To share this torrent use the code below and insert it into comments, status messages, forum posts or your signature.

Torrent: Game of Thrones S02E04 720p HDTV x264-AVS

Trackers

tracker name
udp://tracker.openbittorrent.com:80/announce
udp://tracker.istole.it:80/announce
udp://tracker.publicbt.com:80/announce
udp://tracker.1337x.org:80/announce
http://tracker.hexagon.cc:2710/announce
http://exodus.desync.com:6969/announce
udp://fr33domtracker.h33t.com:3310/announce
µTorrent compatible trackers list

Locations

name
KickassTorrents
Torrent hash: 44C2E4F5B08D83EB401B871C291482285E69FA21

All Comments

audio
8/10
video
9/10
please, leave only comments related to that torrent
Sign In

audio: 10video: 10
Thank you
audio: 10video: 9
Video skips a few seconds near to the end which is a bummer and ruins subtitle synchronization from that point...
San Fabian agradece la grandisima calidad!
Show More All

User Opinions

ammarliaqat5180, TeGiiGii4601, Siimple2346, markozlatni1480, pankthesnake721, DurasR293, yoooga151, CJB67, Lordmars50, shuses20 ... And 535 more
Xnerdz1819, klaudioloko744, Teh_Reh_Rooster438, Lagueto294, masilli232, guillass232, mehmetipek84, linfries29, prof8911, iliad20001 ... And 11 more
Report a bug