From Paris with Love (2010) R5 DVDRip XviD-MAXSPEED

seeders: 11
leechers: 1
updated:
Added by piratepedia754.48K in Movies
Torrent verified. Downloaded 159 times.

Summary:

In Paris, a young employee in the office of the US Ambassador hooks up with an American spy looking to stop a terrorist attack in the city.

Written by DeadShot10144.21K
Available in versions: 1080p720pBDRipHDRiPDVDRip
From Paris with Love (2010) R5 DVDRip XviD-MAXSPEED (Size: 801.8 MB)
  From Paris with Love (2010) R5 DVDRip XviD-MAXSPEED www.torentz.3xforum.ro.avi 801.61 MB
  screencaps.jpg 199.9 KB
  From Paris with Love (2010) R5 DVDRip XviD-MAXSPEED.nfo 2.07 KB
  Torrent downloaded from Demonoid.com.txt 47 bytes
  Torrent verified and recommended by vertor.com.txt 46 bytes
  Torrent downloaded from Rarbg.com.txt 33 bytes
  tracked_by_h33t_com.txt 23 bytes

Description


Screens:
Alternative Screens:
Code:http://www.postimg.com/image/12000/11580.jpghttp://www.postimg.com/image/12000/11581.jpghttp://www.postimg.com/image/12000/11582.jpghttp://www.postimg.com/image/12000/11583.jpghttp://www.postimg.com/image/12000/11584.jpg
ScreenCaps:
Code:Format : AVIFormat/Info : Audio Video InterleaveFormat profile : OpenDMLFile size : 801 MiBDuration : 1h 27mnOverall bit rate : 1 282 KbpsWriting application : VirtualDubMod 1.5.10.2 (build 2542/release)Writing library : VirtualDubMod build 2542/releaseOriginal source form : MAX TORRENTZCopyright : SIGISMUNTVideoFormat : xvidCodec ID : xvidDuration : 1h 27mnBit rate : 1 150 KbpsWidth : 720 pixelsHeight : 304 pixelsDisplay aspect ratio : 2.35:1Frame rate : 25.000 fpsResolution : 24 bitsBits/(Pixel*Frame) : 0.210Stream size : 719 MiB (90%)AudioID : 1Format : MPEG AudioFormat version : Version 1Format profile : Layer 3Codec ID : 55Codec ID/Hint : MP3Duration : 1h 27mnBit rate mode : ConstantBit rate : 128 KbpsChannel(s) : 2 channelsSampling rate : 48.0 KHzResolution : 16 bitsStream size : 80.0 MiB (10%)Alignment : Aligned on interleavesInterleave, duration : 667 ms (16.69 video frames)Interleave, preload duration : 216 msEncode Note:Original R5 DVDRip videosource , clear MENTiON audio source perfectly synced (-100ms)

http://www.torentz.3xforum.r...010_R5_DVDRip_XviD-MAXSPEED/

Sharing Widget


Download torrent
801.8 MB
seeders:11
leechers:1
From Paris with Love (2010) R5 DVDRip XviD-MAXSPEED



To share this torrent use the code below and insert it into comments, status messages, forum posts or your signature.

Torrent: From Paris with Love (2010) R5 DVDRip XviD-MAXSPEED

Trackers

tracker name
udp://tracker.publicbt.com:80/announce
udp://tracker.openbittorrent.com:80/announce
udp://tracker.istole.it:80/announce
udp://tracker.1337x.org:80/announce
udp://open.demonii.com:1337/announce
udp://fr33domtracker.h33t.com:3310/announce
µTorrent compatible trackers list

Locations

name
KickassTorrents
ThePirateBay
TorrentReactor
ExtraTorrent
isoHunt
BTjunkie
BTjunkie
BTjunkie
BTjunkie
KickassTorrents
BTjunkie
KickassTorrents
SumoTorrent
KickassTorrents
Torrent hash: 8de60a4af7b95f0b8b224ca43668e262b0970fce

Top Comments

5
bandant140
audio: 10video: 10
good movie to watch give ya a +
4
anonymous
THIS MOVIE IS SUPER GOOD
2
law420less21
audio: 10video: 10
a10v10m8
2
Raj G.34
audio: 8video: 8
Good movie , great action , John Travolta proves why he is #1 .
V8 A8

All Comments

audio
8/10
video
8/10
please, leave only comments related to that torrent
Sign In

audio: 8video: 8
thanks yes
audio: 8video: 8
thx seeding
audio: 8video: 8
Thanks
audio: 8video: 9
thanx,great quality!!
audio: 8video: 8
ty maxspeed
audio: 10video: 10
thanks
audio: 10video: 10
best movie
still watching this is 2014!!!!!biggrinbiggrinbiggrin
Show More All
audio: 6video: 7

User Opinions

q8djent6178, pumax1480, markozlatni1420, mamaCC545, wazs292, Genius259, OhSoSirius208, MaDzGoD46, dcs_ka37, mongobash7 ... And 968 more
BuFu2544, sethK411, Raver309, martaloe91, Optical85, morgz29, dumbdiver6, paolo693, ahakobyan1, spyqueen980 ... And 65 more
Report a bug