From Paris with Love (2010) R5 DVDRip XviD-MAXSPEED

seeders: 0
leechers: 0
Added on Feb 25, 2010 by piratepedia733.72K in Movies
Torrent verified. Downloaded 0 times.

Summary:
In Paris, a young employee in the office of the US Ambassador hooks up with an American spy looking to stop a terrorist attack in the city.
Written by DeadShot10144.1K
report summary
Available in versions: 1080p720pBDRipHDRiPDVDRip
From Paris with Love (2010) R5 DVDRip XviD-MAXSPEED (Size: 801.8 MB)
  From Paris with Love (2010) R5 DVDRip XviD-MAXSPEED www.torentz.3xforum.ro.avi 801.61 MB
  screencaps.jpg 199.9 KB
  From Paris with Love (2010) R5 DVDRip XviD-MAXSPEED.nfo 2.07 KB
  Torrent downloaded from Demonoid.com.txt 47 bytes
  Torrent verified and recommended by vertor.com.txt 46 bytes
  Torrent downloaded from Rarbg.com.txt 33 bytes
  tracked_by_h33t_com.txt 23 bytes

Description


Screens:
Alternative Screens:
Code:http://www.postimg.com/image/12000/11580.jpghttp://www.postimg.com/image/12000/11581.jpghttp://www.postimg.com/image/12000/11582.jpghttp://www.postimg.com/image/12000/11583.jpghttp://www.postimg.com/image/12000/11584.jpg
ScreenCaps:
Code:Format : AVIFormat/Info : Audio Video InterleaveFormat profile : OpenDMLFile size : 801 MiBDuration : 1h 27mnOverall bit rate : 1 282 KbpsWriting application : VirtualDubMod 1.5.10.2 (build 2542/release)Writing library : VirtualDubMod build 2542/releaseOriginal source form : MAX TORRENTZCopyright : SIGISMUNTVideoFormat : xvidCodec ID : xvidDuration : 1h 27mnBit rate : 1 150 KbpsWidth : 720 pixelsHeight : 304 pixelsDisplay aspect ratio : 2.35:1Frame rate : 25.000 fpsResolution : 24 bitsBits/(Pixel*Frame) : 0.210Stream size : 719 MiB (90%)AudioID : 1Format : MPEG AudioFormat version : Version 1Format profile : Layer 3Codec ID : 55Codec ID/Hint : MP3Duration : 1h 27mnBit rate mode : ConstantBit rate : 128 KbpsChannel(s) : 2 channelsSampling rate : 48.0 KHzResolution : 16 bitsStream size : 80.0 MiB (10%)Alignment : Aligned on interleavesInterleave, duration : 667 ms (16.69 video frames)Interleave, preload duration : 216 msEncode Note:Original R5 DVDRip videosource , clear MENTiON audio source perfectly synced (-100ms)

http://www.torentz.3xforum.r...010_R5_DVDRip_XviD-MAXSPEED/

Sharing Widget


Download torrent
801.8 MB
seeders:0
leechers:0
From Paris with Love (2010) R5 DVDRip XviD-MAXSPEED

Trackers

tracker name Status checked seeders leechers downloads
udp://tracker.publicbt.com:80/announce
outdated 08 Dec 2014 - - -
udp://tracker.istole.it:80/announce
outdated 08 Dec 2014 - - -
udp://tracker.openbittorrent.com:80/announce
outdated 28 Aug 2014 - - -
udp://tracker.1337x.org:80/announce
outdated 01 Aug 2013 - - -
http://exodus.desync.com:6969/announce
blocked 01 Aug 2013 - - -
udp://fr33domtracker.h33t.com:3310/announce
deleted 01 Aug 2013 - - -
µTorrent compatible trackers list

Locations

name
KickassTorrents
ThePirateBay
TorrentReactor
ExtraTorrent
isoHunt
BTjunkie
BTjunkie
BTjunkie
BTjunkie
KickassTorrents
BTjunkie
KickassTorrents
SumoTorrent
KickassTorrents
Torrent hash: 8de60a4af7b95f0b8b224ca43668e262b0970fce

Top Comments

5
bandant140 • 15 Jul 2010, 12:19
torrent downloaded
audio: 10video: 10
good movie to watch give ya a +
4
anonymous • 26 May 2010, 13:56
THIS MOVIE IS SUPER GOOD
2
law420less21 • 18 Jul 2010, 02:15
torrent downloaded
audio: 10video: 10
a10v10m8

All Comments

audio
8/10
video
8/10
please, leave only comments related to that torrent
or sign-in
0
KamoteKahoy773 • 12 March 2015, 12:33
torrent downloaded
Show comment
thanks
0
anonymous • 02 March 2015, 19:54 Show comment
audio: 6video: 7
0
lisa33631361 • 05 February 2015, 11:59
torrent downloaded
Show comment
audio: 8video: 8
thx seeding
0
lostone2312009 • 04 January 2015, 02:12
torrent downloaded
Show comment
audio: 8video: 8
Thanks
0
metallicaman4356 • 12 December 2014, 22:04
torrent downloaded
Show comment
audio: 8video: 9
thanx,great quality!!
0
hsb_401647 • 14 November 2014, 18:51
torrent downloaded
Show comment
audio: 8video: 8
ty maxspeed
0
k1dnap3r177 • 11 October 2014, 10:51
torrent downloaded
Show comment
audio: 10video: 10
thanks
1
LaughingLuna2119 • 14 July 2014, 10:07
torrent downloaded
Show comment
audio: 10video: 10
best movie
still watching this is 2014!!!!!biggrinbiggrinbiggrin
0
titernous1315 • 15 June 2014, 07:24 Show comment
audio: 6video: 8
Show More All

User Opinions

q8djent6022, pumax1471, markozlatni1388, mamaCC544, wazs296, Genius259, OhSoSirius208, MaDzGoD46, dcs_ka37, mongobash7 ... And 958 more
BuFu2494, sethK411, Raver309, martaloe91, Optical85, morgz29, dumbdiver6, paolo695, ahakobyan1, spyqueen980 ... And 65 more
Report a bug