Flypaper 2011 R5 XviD Feel-Free

seeders: 0
leechers: 0
updated:
Added by feel-free20.34K in Movies
Torrent verified. Downloaded 10 times.

Summary:

A man caught in the middle of two simultaneous robberies at the same bank desperately tries to protect the teller with whom he's secretly in love.

Written by 4D722E446F6D246.95K
Available in versions: 1080p720pHDRiPDVDRipScreener
Flypaper 2011 R5 XviD Feel-Free (Size: 794.09 MB)
  94749818456704360413.jpg 79.59 KB
  Flypaper 2011 R5 XviD Feel-Free.avi 792.76 MB
  Flypaper 2011 R5 XviD Feel-Free.nfo 2.63 KB
  Torrent downloaded from extratorrent.com.txt 171 bytes
  vlcsnap-00001.png 271.53 KB
  vlcsnap-00002.png 217.17 KB
  vlcsnap-00003.png 190.46 KB
  vlcsnap-00004.png 301.56 KB
  vlcsnap-00005.png 297.13 KB

Description

http://img84.imageshack.us/img84/1984/iojhpiop.jpg


Genre:Comedy | Crime
Language:English
IMDb:http://www.imdb.com/title/tt1541160/
Source:Russian/Audio.DVDSCR Thanks!

Format : AVI
Format/Info : Audio Video Interleave
File size : 793 MiB
Duration : 1h 23mn
Overall bit rate : 1 324 Kbps

Video
ID : 0
Format : MPEG-4 Visual
Format profile : Advanced Simple@L5
Format settings, BVOP : Yes
Format settings, QPel : No
Format settings, GMC : No warppoints
Format settings, Matrix : Default (H.263)
Muxing mode : Packed bitstream
Codec ID : XVID
Codec ID/Hint : XviD
Duration : 1h 23mn
Bit rate : 1 186 Kbps
Width : 720 pixels
Height : 304 pixels
Display aspect ratio : 2.35:1
Frame rate : 25.000 fps
Color space : YUV
Chroma subsampling : 4:2:0
Bit depth : 8 bits
Scan type : Progressive
Bits/(Pixel*Frame) : 0.217
Stream size : 710 MiB (90%)
Writing library : XviD 1.2.1 (UTC 2008-12-04)

Audio
ID : 1
Format : MPEG Audio
Codec ID : 55
Codec ID/Hint : MP3
Duration : 1h 23mn
Bit rate : 128 Kbps
Channel(s) : 2 channels
Sampling rate : 44.1 KHz
Stream size : 76.6 MiB (10%)
Alignment : Split accross interleaves
Interleave, duration : 40 ms (1.00 video frame)
Interleave, preload duration : 500 ms


Plot:
A man caught in the middle of two simultaneous robberies at the same bank desperately tries to protect the teller with whom he's secretly in love

TRAILER:
[embed=youtube]http://www.youtube.com/watch?v=V03YB2-OFYQ[/embed]


Source

http://firepic.org/images/20...0ehe3hxis9zmuyq0nvbc01qb.jpg
http://firepic.org/images/20...iospvrhb5nc6ts4cmv5go0zk.jpg


Feel-Free

http://www.pix2links.com/images/15753532379992934413.png
http://www.pix2links.com/images/71283274781488374560.png
http://www.pix2links.com/images/87723260374103064140.png
http://www.pix2links.com/images/66111387223528575085.png
http://www.pix2links.com/images/58568113863220944182.png


Greets:

INK,CRYS,IMAGINE,LKRG,FXG,3Li,FLAWL3SS,TA,iLLUSiON,ViSiON,DTRG SAFCuk009,LU,TheFalcon007,MYSTiC,PrisM,Noir,WBZ,LAP,Rx,Kingdom,SAFCuk009+Fabreezy,HDLiTE,TWiZTED,ExtraTorrentRG.ELEKTRI4KA,MAGNAT,CM8
And to all the other p2p grps past and present



Make sure its a real Feel-Free release @ http://extratorrent.com

Thanks to all who promotes release Feel-Free !!!

Related Torrents

torrent name size files age seed leech

Sharing Widget


Download torrent
794.09 MB
seeders:0
leechers:0
Flypaper 2011 R5 XviD Feel-Free



To share this torrent use the code below and insert it into comments, status messages, forum posts or your signature.

Torrent: Flypaper 2011 R5 XviD Feel-Free

Trackers

tracker name
http://10.rarbg.com/announce
http://pow7.com/announce
http://tracker.istole.it/announce
udp://tracker.1337x.org:80/announce
udp://tracker.publicbt.com:80/announce
http://tracker.openbittorrent.com/announce
udp://tracker.openbittorrent.com:80/announce
udp://tracker.istole.it:80/announce
http://tracker.publicbt.com/announce
http://9.rarbg.com:2710/announce
http://tracker.novalayer.org:6969/announce
µTorrent compatible trackers list

Locations

name
KickassTorrents
ExtraTorrent
ThePirateBay
Limetorrents
BTjunkie
Torrent hash: 3DE22C7B039DC2245F7F74C2C9E09BA97A375C4D

All Comments

audio
8/10
video
8/10
please, leave only comments related to that torrent
Sign In

audio: 8video: 8
movie ok...good torrent
audio: 8video: 8
Great & hilarious movie with some suspense...
Thanks..
(audio gaps on abusive words)
*Always Respect uploaders*
audio: 6video: 10
lots of audio gaps puts you off the movie go for a better copy.
audio: 9video: 5
A lot of audio gaps where swear words / offensive words have been cut from audio
audio: 7video: 7
tanx good pic and sound, but it cuts out the swear words which are plenty btw and makes it annoying
audio: 8video: 8
audio 8/10
video 8/10
movie 4/10
audio: 9video: 9
Great copy, A:9, V:9, M:9. Film a bit hilarious, and with some suspense. Thx
Show More All

User Opinions

Trinity11004027, missmovie2538, inglorious871375, leon801167, incredibleDNA995, karthickn795, gnaahh537, acubelexus320, abshake202, nksrink100 ... And 23 more
XxrdnxX240, mixy78p150
Report a bug