Flypaper 2011 DVDSCR XViD-F3

seeders: 0
leechers: 0
updated:
Added in Movies
Torrent verified. Downloaded 10 times.

Summary:

A man caught in the middle of two simultaneous robberies at the same bank desperately tries to protect the teller with whom he's secretly in love.

Written by 4D722E446F6D246.41K
Available in versions: 1080p720pHDRiPDVDRip
Flypaper 2011 DVDSCR XViD-F3 (Size: 590.7 MB)
  Flypaper 2011 DVDSCR XViD-F3(2).avi 587.34 MB
  Flypaper Sample.avi 3.36 MB

Description


Code:Flypaper 2011 DVDSCR XViD-F3Information:Genre : Comedy / CrimePlot : A man caught in the middle of two simultaneous robberies at the same bank desperately tries to protect the teller with whom he\'s secretly in love.GeneralComplete name : Flypaper.aviFormat : AVIFormat/Info : Audio Video InterleaveFile size : 587 MiBDuration : 1h 27mnOverall bit rate : 941 KbpsVideoID : 0Format : MPEG-4 VisualFormat profile : Advanced Simple@L5Format settings, BVOP : 2Format settings, QPel : NoFormat settings, GMC : No warppointsFormat settings, Matrix : Default (H.263)Codec ID : XVIDCodec ID/Hint : XviDDuration : 1h 27mnBit rate : 800 KbpsWidth : 640 pixelsHeight : 280 pixelsDisplay aspect ratio : 3.251Frame rate : 25.000 fpsColor space : YUVChroma subsampling : 4:2:0Bit depth : 8 bitsScan type : ProgressiveCompression mode : LossyBits/(Pixel*Frame) : 0.179Stream size : 499 MiB (85%)Writing library : XviD 63AudioID : 1Format : MPEG AudioFormat version : Version 1Format profile : Layer 3Codec ID : 55Codec ID/Hint : MP3Duration : 1h 27mnBit rate mode : ConstantBit rate : 128 KbpsChannel(s) : 2 channelsSampling rate : 48.0 KHzCompression mode : LossyStream size : 79.9 MiB (14%)Alignment : Split accross interleavesInterleave, duration : 24 ms (0.60 video frame)Writing library : LAME3.98.4http://www.imdb.com/title/tt1541160/
Screens:







ENJOY!

Related Torrents

torrent name size files age seed leech

Sharing Widget


Download torrent
590.7 MB
seeders:0
leechers:0
Flypaper 2011 DVDSCR XViD-F3



To share this torrent use the code below and insert it into comments, status messages, forum posts or your signature.

Torrent: Flypaper 2011 DVDSCR XViD-F3

Trackers

tracker name
udp://tracker.istole.it:80/announce
udp://tracker.publicbt.com:80/announce
udp://tracker.openbittorrent.com:80/announce
http://10.rarbg.com/announce
http://pow7.com/announce
http://tracker.istole.it/announce
http://cpleft.com:2710/announce
udp://tracker.1337x.org:80/announce
http://tracker.openbittorrent.com/announce
http://exodus.desync.com:6969/announce
http://tracker.publicbt.com/announce
http://9.rarbg.com:2710/announce
http://tracker.novalayer.org:6969/announce
ĀµTorrent compatible trackers list

Locations

name
ExtraTorrent
Torrent hash: 7a253f0dcace0baaa16f9c822efde823d55fac70

All Comments

audio
7/10
video
8/10
please, leave only comments related to that torrent
Sign In

audio: 8video: 9
Great D/L Thank you
audio: 8video: 10
Good Movie But This Must Came From TV Because The Audio Is Edited. Other Than That Very Funny..

User Opinions

Report a bug