Flicka 3 Country Pride 2012 DVDRip XviD-miRaGe

seeders: 3
leechers: 0
updated:
Added by DEMONLORD40001632 in Movies
Torrent verified. Downloaded 125 times.

Summary:

Flicka and Toby help out a struggling stable owner and her teenage daughter.

Written by Man2016noW57.36K
Available in versions: 720pDVDDVDRip
Flicka 3 Country Pride 2012 DVDRip XviD-miRaGe (Size: 703.32 MB)
  Flicka.3.Country.Pride.2012.DVDRip.XviD-miRaGe.avi 703.13 MB
  Flicka.3.Country.Pride.2012.DVDRip.XviD-miRaGe.jpg 186.93 KB
  Flicka.3.Country.Pride.DVDRip.XviD-miRaGe.nfo 2.81 KB
  Torrent TXT Files

Description

image

image

online info
___________
imdb: http://www.imdb.com/title/tt2039339/
rating: G
runtime: 111 min
genre: Family
release date: May 1 2012
plot: Flicka and Toby help out a struggling stable owner and her teenage daughter.


Format : AVI
______
Format/Info : Audio Video Interleave

File size : 703 MiB

Duration : 1h 32mn

Overall bit rate mode : Variable

Overall bit rate : 1 066 Kbps


Video
_____
Codec ID : XVID

Duration : 1h 32mn

Bit rate : 940 Kbps

Width : 624 pixels

Height : 352 pixels

Display aspect ratio : 16:9

Frame rate : 23.976 fps

Color space : YUV

Chroma subsampling : 4:2:0

Bit depth : 8 bits

Scan type : Progressive

Compression mode : Lossy

Bits/(Pixel*Frame) : 0.179

Stream size : 620 MiB (88%)

Writing library : XviD 64



Audio
_____
ID : 1

Format : MPEG Audio

Format version : Version 1

Format profile : Layer 3

Mode : Joint stereo

Mode extension : MS Stereo

Codec ID : 55

Codec ID/Hint : MP3

Duration : 1h 32mn

Bit rate mode : Variable

Bit rate : 113 Kbps

Nominal bit rate : 128 Kbps

Channel(s) : 2 channels

Sampling rate : 48.0 KHz

Compression mode : Lossy

Stream size : 74.6 MiB (11%)

Alignment : Aligned on interleaves

Interleave, duration : 24 ms (0.58 video frame)

Interleave, preload duration : 162 ms


notes
_____
Looking for cammers or suppliers who can bring unreleased movies/games/etc

servers, accounts, etc


greetz
______
thanks to 26k, HDscene, Vision, Noir, BTVRG, and everyone else we respect

special shout out to everyone at the underground


screens
________
image

Related Torrents

torrent name size files age seed leech

Sharing Widget


Download torrent
703.32 MB
seeders:3
leechers:0
Flicka 3 Country Pride 2012 DVDRip XviD-miRaGe



To share this torrent use the code below and insert it into comments, status messages, forum posts or your signature.

Torrent: Flicka 3 Country Pride 2012 DVDRip XviD-miRaGe

Trackers

tracker name
udp://tracker.openbittorrent.com:80/announce
http://pow7.com/announce
http://tracker.istole.it/announce
udp://tracker.publicbt.com:80/announce
udp://tracker.istole.it:80/announce
udp://tracker.1337x.org:80/announce
http://10.rarbg.com/announce
http://exodus.desync.com:6969/announce
udp://fr33domtracker.h33t.com:3310/announce
http://tracker.publicbt.com/announce
ĀµTorrent compatible trackers list

Locations

name
KickassTorrents
Torrent hash: AE5C6180B1D1FD629D1E5FBB159A26C57BC94642

All Comments

audio
9/10
video
9/10
please, leave only comments related to that torrent
Sign In

audio: 10video: 10
Very good copy, Thanx!
audio: 9video: 9
Thanks Uploader nice share........
audio: 9video: 9
thanks from my girls

User Opinions

rayron7648, F.Francisco6741, benga203653, kwik-kiwi2629, Ravo_XP2095, windhio1018, aeauer906, hardwork403, SeanAngela241, Wessie777171 ... And 53 more
bloodeath26
Report a bug