Flashpoint Season 3

seeders: 1
leechers: 0
updated:
Added in TV
Torrent verified. Downloaded 10 times.

  • View all Flashpoint episodes
  • IMDb link: 1059475
  • TVmaze link: Flashpoint
  • Original run: 11 July 2008 — 13 December 2012
  • Summary:

    The show focuses on a fictional elite tactical unit, the Strategic Response Unit (SRU), within a Canadian metropolitan police force. The SRU are tasked to resolve extreme situations that regular officers are not trained to handle, including hostage-taking, bomb threats, and heavily armed criminals.

    Written by SuperLemKilla51.82K
Available in versions: 720p480pHDTV
Flashpoint Season 3 (Size: 3.08 GB)
  Flashpoint.S03E03.HDTV.XviD-2HD.[VTV].avi 350.64 MB
  Flashpoint.S03E09.READNFO.HDTV.XviD-2HD.[VTV].avi 350.39 MB
  flashpoint.0306.hdtv.xvid-notv.avi 350.24 MB
  Flashpoint.S03E07.HDTV.XviD-NoTV.[VTV].avi 350.22 MB
  flashpoint.0305.hdtv.xvid-notv.avi 350.21 MB
  Flashpoint.S03E01.HDTV.XviD-NoTV.[VTV].avi 350.18 MB
  Flashpoint.S03E02.HDTV.XviD-NoTV.avi 350.15 MB
  Flashpoint.S03E04.Custody.HDTV.XviD-2HD.[VTV].avi 349.71 MB
  Flashpoint.S03E08.HDTV.XviD-NoTV.[VTV].avi 349.19 MB
  Another great torrent!.txt 122 bytes
  Torrent downloaded from Demonoid.com.txt 47 bytes

Description

☆┌─┐ ─┐☆
 │▒│ /▒/
 │▒│/▒/
 │▒ /▒/─┬─┐
 │▒│▒|▒│▒│
┌┴─┴─┐-┘─┘ ●●BloodyRoses●●
│▒┌──┘▒▒▒│ ♪ ♫ ♪ ♫ ♪ ♫ ♪ ♫♪ ♫ ♪ ♫ ♪ ♫ ♪
└┐▒▒▒▒▒▒┌┘
 └┐▒▒▒▒┌ *Tested*
Tested on Ipod Touch 2nd gen 32gb and Ipod Classic 80Gb

Converting any Movies, TV shows, Music Videos, Music ect please post your request in the comments.

-----------------------------------------------------------------------------------

Do you want to host my file on your website? Want your tracker added to my torrents? Just post your tracker in the comments and I will add it to all of the torrents I release.

-----------------------------------------------------------------------------------

If you found something in any of my Torrents, consider that it may be a false positive and if you are sure please report it to me first.

Report Bad Torrents Here:
http://forum.suprbay.org/forumdisplay.php?fid=29

Please Leave A Comment

-----------------------------------------------------------------------------------

Screens:

-----------------------------------------------------------------------------------

Format : AVI
Format/Info : Audio Video Interleave
File size : 350 MiB
Duration : 42mn 33s
Overall bit rate : 1 150 Kbps
Writing application : transcode-1.0.2

Video
ID : 0
Format : MPEG-4 Visual
Format profile : AdvancedSimple@L5
Format settings, BVOP : Yes
Format settings, QPel : No
Format settings, GMC : No warppoints
Format settings, Matrix : Default (H.263)
Muxing mode : Packed bitstream
Codec ID : XVID
Codec ID/Hint : XviD
Duration : 42mn 33s
Bit rate : 1 014 Kbps
Width : 624 pixels
Height : 352 pixels
Display aspect ratio : 16:9
Frame rate : 23.976 fps
Resolution : 24 bits
Colorimetry : 4:2:0
Scan type : Progressive
Bits/(Pixel*Frame) : 0.192
Stream size : 309 MiB (88%)
Writing library : XviD 1.2.1 (UTC 2008-12-04)

Audio
ID : 1
Format : MPEG Audio
Format version : Version 1
Format profile : Layer 3
Codec ID : 55
Codec ID/Hint : MP3
Duration : 42mn 33s
Bit rate mode : Variable
Bit rate : 128 Kbps
Channel(s) : 2 channels
Sampling rate : 48.0 KHz
Resolution : 16 bits
Stream size : 37.7 MiB (11%)
Alignment : Aligned on interleaves
Interleave, duration : 24 ms (0.58 video frame)

Related Torrents

torrent name size files age seed leech

Sharing Widget


Download torrent
3.08 GB
seeders:1
leechers:0
Flashpoint Season 3



To share this torrent use the code below and insert it into comments, status messages, forum posts or your signature.

Torrent: Flashpoint Season 3

Trackers

tracker name
udp://tracker.publicbt.com:80/announce
udp://tracker.openbittorrent.com:80/announce
http://genesis.1337x.org:1337/announce
http://tracker.openbittorrent.com/announce
http://tracker.publicbt.com/announce
µTorrent compatible trackers list

Locations

name
ThePirateBay
Torrentzap
1337x
Torrent hash: c80af3dbf36e3243cc919245c3d963ace7283b1b

All Comments

audio
0/10
video
0/10
please, leave only comments related to that torrent
Sign In

Why xvid / avi? It is obsolete.
These shows don't match what season 3, except for maybe 1 episode. The one of the arena being torn down. Please check your shows again because these are all wrong. Waste of time to download as it is.
this is actually season 2, but still good quality.
This is the end of season two. CBS cut it off halk way thru the second season. The Jews :D and now that they have nothing to air on friday nights it's back, Thank god... i was so mad when they put the airing on hold.... IMDB http://en.wikipedia.org/wiki/List_of_Flashpoint_episodes#Season_3
sorry not imdb... Wikipedia

ctv.ca.com it's a show from canada
This is NOT season3, but season 2.
Flashpoint season 3 just started in Jan. 2010so how do you have 9 episodes already?
Actually according to IMDB it ran Sept - Nov 2009. You're catching reruns on another network perhaps?
this is Season 02 E14 to E22 - E14 is "One Wrong Move" 3 Terrorist Bombs with the 3rd one booby trapped


User Opinions

iamthelived7097, bogsinspace1823, GhostCaptain1229, Goat883881206, tats0163, theofficialmonkeyfist140, Trevor.C131, vilsy34, GOY69622, Nerd4Life15 ... And 7 more
Report a bug Open chat