Fast and Furious 5 Rio Heist 2011 NEW HQ VIDEO TS XviD AC3 Hive-CM8-TheCod3r

seeders: 0
leechers: 0
Added in Movies
Torrent verified. Downloaded 10 times.


Dominic Toretto and his crew of street racers plan a massive heist to buy their freedom while in the sights of a powerful Brazilian drug lord and a dangerous federal agent.

Written by Chev.Chelios326.03K
Available in versions: 1080p720pHDRiPDVDDVDRipx264TeleSync
Fast and Furious 5 Rio Heist 2011 NEW HQ VIDEO TS XviD AC3 Hive-CM8-TheCod3r (Size: 1.79 GB)
  Fast.and.Furious.5.Rio.Heist.2011.NEW.HQ.VIDEO.TS.XviD.AC3.Hive-CM8.avi 1.76 GB
  sample action.avi 11.5 MB
  sample daylight.avi 9.2 MB
  sample dark.avi 3.93 MB
  info.txt 3.78 KB
  Join us at Bit Byte.url 113 bytes
  Torrent downloaded from 46 bytes





Video: New High Quality German 720P TS PFD thx

Audio: Imagines Line thx


the german ts was very good, no shaking,no flickering, nothing cropped and full movie.

The scenes at daylight were very good didnt touch them much, there are some darker scenes

which i brightened up a bit, looks very good now, could almost pass as a screener.

I synced the line nearly lipsync, was a lot of work all together around 10h work at least.

will do till the retail comes around.

watch samples!!

Video: 720x304 @bitrate 1900 2pass

Audio: English AC3 2.0 Stereo

Sample: yes 3 included, daylight,dark and action parts


Complete name : Fast.and.Furious.5.Rio.Heist.2011.NEW.HQ.VIDEO.TS.XviD.AC3.Hive-CM8.avi

Format : AVI

Format/Info : Audio Video Interleave

File size : 1.76 GiB

Duration : 1h 56mn

Overall bit rate : 2 167 Kbps

Writing application : Nandub v1.0rc2

Writing library : Nandub build 1853/release


ID : 0

Format : MPEG-4 Visual

Format profile : Advanced Simple@L5

Format settings, BVOP : 2

Format settings, QPel : Yes

Format settings, GMC : No warppoints

Format settings, Matrix : Default (H.263)

Muxing mode : Packed bitstream

Codec ID : XVID

Codec ID/Hint : XviD

Duration : 1h 56mn

Bit rate : 1 901 Kbps

Width : 720 pixels

Height : 304 pixels

Display aspect ratio : 2.35:1

Frame rate : 25.000 fps

Color space : YUV

Chroma subsampling : 4:2:0

Bit depth : 8 bits

Scan type : Progressive

Compression mode : Lossy

Bits/(Pixel*Frame) : 0.347

Stream size : 1.55 GiB (88%)

Writing library : XviD 1.2.1 (UTC 2008-12-04)


ID : 1

Format : AC-3

Format/Info : Audio Coding 3

Mode extension : CM (complete main)

Codec ID : 2000

Duration : 1h 56mn

Bit rate mode : Constant

Bit rate : 256 Kbps

Channel(s) : 2 channels

Channel positions : Front: L R

Sampling rate : 48.0 KHz

Bit depth : 16 bits

Compression mode : Lossy

Stream size : 213 MiB (12%)

Alignment : Split accross interleaves

Interleave, duration : 40 ms (1.00 video frame)

Interleave, preload duration : 500 ms

Vin Diesel ... Dominic Toretto

Paul Walker ... Brian O'Conner

Jordana Brewster ... Mia

Tyrese Gibson ... Roman

Ludacris ... Tej (as Chris 'Ludacris' Bridges)

Matt Schulze ... Vince

Dwayne Johnson ... Hobbs

Dominic and his crew find themselves on the wrong side of the law once again

as they try to switch lanes between a ruthless drug lord and a relentless federal agent.


Join us at for more great uploads...

Related Torrents

torrent name size files age seed leech

Sharing Widget

Download torrent
1.79 GB
Fast and Furious 5 Rio Heist 2011 NEW HQ VIDEO TS XviD AC3 Hive-CM8-TheCod3r

To share this torrent use the code below and insert it into comments, status messages, forum posts or your signature.

Torrent: Fast and Furious 5 Rio Heist...S XviD AC3 Hive-CM8-TheCod3r


tracker name
ĀµTorrent compatible trackers list


Torrent hash: 6d1468cea85842c968fffec2e59193354e8abeb3

All Comments

please, leave only comments related to that torrent
Sign In

anonymous Show comment
these 2 guys are nobs
Nightmare.8910.79K Show comment
audio: 10video: 10
anonymous Show comment
Cinavia security trips using the PS3, probably on other devices that can detect the Cinavia audio watermark as well.
anonymous Show comment
audio: 1video: 1
no quality
anonymous Show comment
this guy is a troller.

itsme!100 Show comment

User Opinions

Report a bug