Face Off(1997)DVDrip{Dual audio}[Eng Hindi]Current_HD

seeders: 0
leechers: 1
updated:
Added in Movies
Torrent verified. Downloaded 10 times.

Summary:

To foil an extortion plot, an FBI agent undergoes a face-transplant surgery and assumes the identity and physical appearance of a ruthless terrorist, but the plan backfires when the same criminal impersonates the cop with the same method.

Written by thePiratePimp72.75K
Available in versions: 1080p720pBlu-RayBDRipHDRiPDVDRipx265
Face Off(1997)DVDrip{Dual audio}[Eng Hindi]Current_HD (Size: 912.34 MB)
  Face Off(1997)DVDrip{Dual audio}[Eng Hindi]Current_HD.avi 912.34 MB

Description

http://x264-bb.com/screenz/images/j8yo872p3e6jktc4c1r.jpg

http://pic.phyrefile.com/m/ma/masta/2010/10/23/u0jfp.jpg.png
General
Complete name : Face Off(1997)DVDrip{Dual audio}[Eng Hindi]Current_HD
Format : AVI
Format/Info : Audio Video Interleave
Format profile : OpenDML
File size : 912 MiB
Duration : 2h 13mn
Overall bit rate : 957 Kbps
Writing application : AVI-Mux GUI 1.17.8.3, Feb 16 201019:42:50

image
Video
ID : 0
Format : MPEG-4 Visual
Format profile : Advanced Simple@L5
Format settings, BVOP : Yes
Format settings, QPel : No
Format settings, GMC : No warppoints
Format settings, Matrix : Default (H.263)
Codec ID : DX50
Codec ID/Hint : DivX 5
Duration : 2h 13mn
Bit rate : 733 Kbps
Width : 672 pixels
Height : 280 pixels
Display aspect ratio : 2.40:1
Frame rate : 25.000 fps
Color space : YUV
Chroma subsampling : 4:2:0
Bit depth : 8 bits
Scan type : Progressive
Bits/(Pixel*Frame) : 0.156
Stream size : 699 MiB (77%)
Writing library : XviD 1.1.0 (UTC 2005-11-22)

image
Audio #1
ID : 1
Format : MPEG Audio
Format version : Version 1
Format profile : Layer 3
Mode : Joint stereo
Codec ID : 55
Codec ID/Hint : MP3
Duration : 2h 13mn
Bit rate mode : Constant
Bit rate : 96.0 Kbps
Channel(s) : 2 channels
Sampling rate : 48.0 KHz
Stream size : 91.5 MiB (10%)
Alignment : Aligned on interleaves
Interleave, duration : 859 ms (21.47 video frames)
Interleave, preload duration : 216 ms
Writing library : LAME3.97 (beta)

image
Audio #2
ID : 2
Format : MPEG Audio
Format version : Version 1
Format profile : Layer 3
Mode : Joint stereo
Mode extension : MS Stereo
Codec ID : 55
Codec ID/Hint : MP3
Duration : 2h 8mn
Bit rate mode : Constant
Bit rate : 128 Kbps
Channel(s) : 2 channels
Sampling rate : 48.0 KHz
Stream size : 118 MiB (13%)
Alignment : Aligned on interleaves
Interleave, duration : 881 ms (22.02 video frames)
Interleave, preload duration : 216 ms
Title : CurrentHD
Writing library : LAME3.97


http://pic.phyrefile.com/m/m...a/2010/10/23/2myzspj.jpg.png
image
image
[MG]https://img\s1.imageshack.us/img703/7027/29096847.jpg[/IMG]
image
image

Related Torrents

torrent name size files age seed leech

Sharing Widget


Download torrent
912.34 MB
seeders:0
leechers:1
Face Off(1997)DVDrip{Dual audio}[Eng Hindi]Current_HD



To share this torrent use the code below and insert it into comments, status messages, forum posts or your signature.

Torrent: Face Off(1997)DVDrip{Dual audio}[Eng Hindi]Current_HD

Trackers

tracker name
udp://tracker.publicbt.com:80/announce
udp://tracker.istole.it:80/announce
udp://tracker.openbittorrent.com:80/announce
http://10.rarbg.com/announce
http://bt1.the9.com:6969/announce
http://genesis.1337x.org:1337/announce
http://nemesis.1337x.org/announce
http://tracker.ilibr.org/announce
udp://fr33domtracker.h33t.com:3310/announce
http://torrent-download.to:5869/announce
µTorrent compatible trackers list

Locations

name
ThePirateBay
1337x
Torrent hash: bc3500cfb8f1deba801ec6846f817251b2b51669

All Comments

audio
9/10
video
9/10
please, leave only comments related to that torrent
Sign In

Seed Pleaseeeeeeeeeeeeeeeeeeeeeeeeeeee
ps3 friendly?
audio: 10video: 10
awesome movie n print....i love it
audio: 10video: 10
good movie and very good video and audio quilty
audio: 8video: 9
fantastic film.very much thanks
audio: 10video: 10
nice movie & very good print
audio: 9video: 9
good copy

User Opinions

Jendeana3641, uchiha_fan2172, fonzie5882079, iamgaurav1422, shreyam1079, sidharth96760, gamingfreak01582, tapangoswami367, Kaushal1119, 580809120 ... And 3 more
OPJ180
Report a bug Open chat