F. Sinatra- A Man And His Music (ft. Ella and Jobim) (DVD set 2 of 2)

seeders: 0
leechers: 0
Added on Feb 6, 2012 by jobam485 in Movies > Music videos
Downloaded 0 times.

F. Sinatra- A Man And His Music (ft. Ella and Jobim) (DVD set 2 of 2) (Size: 6.71 GB)
  FRANK_SINATRA_COVER
  VIDEO_TS

Description

A Man And His Music: The Collection (DVD Set 2of 2)
image
First part of: Frank Sinatra: Concert - DVD Collection (2010) [2/7]
FRANK SINATRA’S GREATEST TELEVISON AND CONCERT PERFORMANCES FEATURING AN INCREDIBLE ARRAY OF GUEST STARS AND PREVIOUSLY UNRELEASED MATERIAL.
Disc Two
A Man And His Music + Ella + Jobim (With Special Guests Ella Fitzgerald and Antonio Carlos Jobim)
01 Day In, Day Out
02 Get Me To The Church On Time
03 What Now My Love
04 01' Man River
05 Body And Soul - Ella Fitzgerald
06 It's All Right With Me - Ella Fitzgerald
07 Medley With Ella Fitzgerald:
How High The Moon
Up, Up And Away
Look Out For Jimmy Valentine
Theme To Tony Rome
Goody Goody
Don't Cry Joe
Ode To Billy Joe
Goin' Out Of My Head
08 Medley With Antonio Carlos Jobim:
Change Partners
I Concentrate On You
The Girl From Ipanema
09 Medley With Ella Fitzgerald:
The Song Is You
They Can't Take That Away From Me
Stompin' At The Savoy
At Long Last Love
10 Don't Be That Way - Ella Fitzgerald
11 The Lady Is A Tramp - Duet With Ella Fitzgerald
12 Put Your Dreams Away
General
Complete name : F:downloadfrasit_concol_dvdfrancolavoce...s..s.sjhhhdgdgggsjkjdkF.SINATRA_DISC1VIDEO_TSVTS_01_1.VOB
Format : MPEG-PS
File size : 13.9 MiB
Duration : 16s 640ms
Overall bit rate mode : Variable
Overall bit rate : 6 987 Kbps
Video
ID : 224 (0xE0)
Format : MPEG Video
Format version : Version 2
Format profile : Main@Main
Format settings, BVOP : Yes
Format settings, Matrix : Custom
Format settings, GOP : M=3, N=15
Duration : 16s 617ms
Bit rate mode : Variable
Bit rate : 6 656 Kbps
Maximum bit rate : 7 900 Kbps
Width : 720 pixels
Height : 480 pixels
Display aspect ratio : 16:9
Frame rate : 29.970 fps
Standard : NTSC
Color space : YUV
Chroma subsampling : 4:2:0
Bit depth : 8 bits
Scan type : Interlaced
Scan order : Top Field First
Compression mode : Lossy
Bits/(Pixel*Frame) : 0.643
Stream size : 13.2 MiB (95%)
Color primaries : SMPTE 170M
Transfer characteristics : SMPTE 170M
Matrix coefficients : SMPTE 170M
Audio
ID : 189 (0xBD)-128 (0x80)
Format : AC-3
Format/Info : Audio Coding 3
Mode extension : CM (complete main)
Muxing mode : DVD-Video
Duration : 16s 640ms
Bit rate mode : Constant
Bit rate : 192 Kbps
Channel(s) : 2 channels
Channel positions : Front: L R
Sampling rate : 48.0 KHz
Bit depth : 16 bits
Compression mode : Lossy
Stream size : 390 KiB (3%)

Sharing Widget


Download torrent
6.71 GB
seeders:0
leechers:0
F. Sinatra- A Man And His Music (ft. Ella and Jobim) (DVD set 2 of 2)

Trackers

tracker name Status checked seeders leechers downloads
udp://inferno.demonoid.com:3392/announce
outdated 29 Mar 2015 - - -
udp://tracker.publicbt.com:80/announce
outdated 05 Aug 2014 - - -
udp://tracker.openbittorrent.com:80/announce
outdated 05 Aug 2014 - - -
http://tracker.torrentbay.to:6969/announce
outdated 02 Dec 2012 - - -
http://tracker.ccc.de/announce
outdated 16 Oct 2012 - - -
http://bt.rghost.net/announce
outdated 16 Oct 2012 - - -
http://10.rarbg.com/announce
private 09 May 2012 - - -
http://pow7.com/announce
outdated 09 May 2012 - - -
http://t1.pow7.com/announce
outdated 09 May 2012 - - -
http://tracker.token.ro/announce
outdated 09 May 2012 - - -
http://tracker.pow7.com/announce
outdated 07 Feb 2012 - - -
udp://tracker.1337x.org:80/announce
outdated 07 Feb 2012 - - -
http://tracker.openbittorrent.com/announce
outdated 07 Feb 2012 - - -
http://ipv4.tracker.harry.lu/announce
outdated 07 Feb 2012 - - -
http://inferno.demonoid.me:3392/announce
outdated 07 Feb 2012 - - -
http://tracker.1337x.org/announce
outdated 07 Feb 2012 - - -
udp://tracker.tntvillage.scambioetico.org:2710/announce
blocked 07 Feb 2012 - - -
http://tracker.ilibr.org/announce
blocked 06 Feb 2012 - - -
http://fr33dom.h33t.com:3310/announce
deleted 17 May 2013 - - -
http://tracker.publicbt.com/announce
deleted 11 Mar 2013 - - -
http://torrentbay.to:6969/announce
error 06 Feb 2012 - - -
http://t2.pow7.com/announce
error 06 Feb 2012 - - -
http://tracker.blazing.de/announce
error 06 Feb 2012 - - -
http://tracker.ipv6tracker.org/announce
error 06 Feb 2012 - - -
http://tracker.podtropolis.com:2711/announce
error 06 Feb 2012 - - -
http://tracker1.torrentbox.com:2710/announce
error 06 Feb 2012 - - -
http://ipv6.tracker.harry.lu/announce
error 06 Feb 2012 - - -
http://tracker.tntvillage.scambioetico.org:2710/announce
error 06 Feb 2012 - - -
http://www.torrent-downloads.to:2710/announce
error 06 Feb 2012 - - -
http://inferno.demonoid.com:3392/announce
error 06 Feb 2012 - - -
http://tracker.podtropolis.com:2710/announce
error 06 Feb 2012 - - -
µTorrent compatible trackers list

Locations

name
KickassTorrents
Limetorrents
Torrent hash: ADF58EE33AE2E93D5F22ACDC7ED97BFAE100354B

All Comments

please, leave only comments related to that torrent
or sign-in

User Opinions

Report a bug