Dragon Fight[1989]DVDRip[Eng-Subbed]JetLi

seeders: 0
leechers: 0
updated: 1 week ago
Added on Jan 23, 2011 in Movies > Asian
Torrent verified. Downloaded 0 times.

Summary:
Two martial artist friends from China are performing a show in the States. Trouble starts when one of them decides to defect and stay in America.
Written by MIke173443
report summary
Available in versions: DVDRip
Dragon Fight[1989]DVDRip[Eng-Subbed]JetLi (Size: 1.37 GB)
  Jet Li [1989] - Dragon Fight.avi 1.37 GB

Description

**English subtitles included**



Dragon Fight/Long zai tian ya (1989)]



This Dragon won\'t give up without a fight!

Video
ID : 0
Format : MPEG-4 Visual
Format profile : Advanced Simple@L5
Format settings, BVOP : 1
Format settings, QPel : No
Format settings, GMC : No warppoints
Format settings, Matrix : Custom
Codec ID : XVID
Codec ID/Hint : XviD
Duration : 1h 37mn
Bit rate : 1 888 Kbps
Width : 720 pixels
Height : 544 pixels
Display aspect ratio : 4:3
Frame rate : 23.976 fps
Color space : YUV
Chroma subsampling : 4:2:0
Bit depth : 8 bits
Scan type : Progressive
Compression mode : Lossy
Bits/(Pixel*Frame) : 0.201
Stream size : 1.29 GiB (94%)
Writing library : XviD 1.2.0.dev47 (UTC 2006-11-01)

Audio
ID : 1
Format : MPEG Audio
Format version : Version 1
Format profile : Layer 3
Mode : Joint stereo
Codec ID : 55
Codec ID/Hint : MP3
Duration : 1h 37mn
Bit rate mode : Variable
Bit rate : 105 Kbps
Nominal bit rate : 128 Kbps
Channel(s) : 2 channels
Sampling rate : 48.0 KHz
Compression mode : Lossy
Stream size : 73.0 MiB (5%)
Alignment : Aligned on interleaves
Interleave, duration : 24 ms (0.58 video frame)
Interleave, preload duration : 554 ms
Writing library : LAME3.97
Encoding settings : -m j -V 4 -q 2 -lowpass 17 --abr 128


http://www.imdb.com/title/tt0095542/










If you\'d like to review me, please click bellow:
http://extratorrent.com/user/review_add/?user=iwanttobelieveinaj

Uploader Notes:
This is one of the many HARD TO FIND uploads, so please bear me, be patient and help seed back, as it has already been added to my seedbox. Thanks and enjoy!!!

~KIM



Greetings to all RELEASE GROUPS out there, and all members of this site.

And here\'s your payment if these are seeded more:

Sharing Widget


Download torrent
1.37 GB
seeders:0
leechers:0
Dragon Fight[1989]DVDRip[Eng-Subbed]JetLi

Trackers

tracker name Status
http://pow7.com/announce
outdated
udp://tracker.openbittorrent.com:80/announce
outdated
udp://tracker.publicbt.com:80/announce
outdated
http://10.rarbg.com/announce
private
http://nemesis.1337x.org/announce
outdated
http://exodus.1337x.org/announce
outdated
http://genesis.1337x.org:1337/announce
outdated
http://tracker.openbittorrent.com/announce
outdated
http://tracker.publicbt.com/announce
deleted
µTorrent compatible trackers list

Locations

name
ExtraTorrent
Torrent hash: 1f650ac8873980110601185d4f7de3cafc1f4ba5

All Comments

audio
9/10
video
9/10
please, leave only comments related to that torrent
or sign-in

0
anonymous • 25 Aug 2012, 01:34 Show comment
Wow ONLY 1 SEEDER ... come on guys!
0
ImprovedRelic1007 • 15 May 2014, 05:56
torrent downloaded
Show comment
audio: 9video: 8
0
julitanhon546 • 05 Feb 2011, 22:52
torrent downloaded
Show comment
audio: 10video: 10

User Opinions

Ju1es4252, TheMildman1168, LRod1082, ImprovedRelic1007, Obladi656, julitanhon546, asiayvonna251, KenRmaster198, necros771167, Shinigami3y3s55 ... And 1 more
Report a bug