Dragon Ball Z Movies

seeders: 0
leechers: 0
updated:
Added by avasthy0547 in Anime
Downloaded 10 times.

Dragon Ball Z Movies (Size: 2.8 GB)
  2 the world strongest.mp4 236.69 MB
  12 Fusion Reborn.mp4 236.38 MB
  8 Legendary super saiyan.mp4 226.53 MB
  4 lord slug.mp4 210.28 MB
  1 the deadzone.mp4 201.77 MB
  3 the tree to might.mp4 200.57 MB
  13 Wrath of dragon.mp4 199.79 MB
  9 Bojack Unbound.mp4 190.75 MB
  6 return of cooler.mp4 178.32 MB
  11 Bio Broly.mp4 176.14 MB
  10 Broly Second Coming.mp4 174.46 MB
  7 Super android 13.mp4 172.15 MB
  sp2 the history of trunks.mp4 163.86 MB
  5 coolers revenge.mp4 161.31 MB
  sp1 burdok father of goku.mp4 139.76 MB

Description

imageCollection of all Dragon Ball Movies.


Format : MPEG-4
Format profile : Base Media
Codec ID : isom
File size : ~191 MiB
Duration : ~50mn
Overall bit rate mode : Variable
Overall bit rate : 529 Kbps
Encoded date : UTC 2012-08-13 04:14:14
Tagged date : UTC 2012-08-13 04:14:14

Video
ID : 1
Format : AVC
Format/Info : Advanced Video Codec
Format profile : High@L3.0
Format settings, CABAC : Yes
Format settings, ReFrames : 8 frames
Codec ID : avc1
Codec ID/Info : Advanced Video Coding
Duration : 50mn 23s
Bit rate mode : Variable
Bit rate : 462 Kbps
Maximum bit rate : 4 030 Kbps
Width : 704 pixels
Height : 392 pixels
Display aspect ratio : 16:9
Frame rate mode : Constant
Frame rate : 23.976 fps
Color space : YUV
Chroma subsampling : 4:2:0
Bit depth : 8 bits
Scan type : Progressive
Bits/(Pixel*Frame) : 0.070
Stream size : 166 MiB (87%)
Writing library : x264 core 119 r2106 07efeb4
Encoding settings : cabac=1 / ref=8 / deblock=1:1:2 / analyse=0x3:0x133 / me=umh / subme=9 / psy=1 / psy_rd=0.25:0.00 / mixed_ref=1 / me_range=24 / chroma_me=1 / trellis=2 / 8x8dct=1 / cqm=0 / deadzone=21,11 / fast_pskip=1 / chroma_qp_offset=-2 / threads=6 / sliced_threads=0 / nr=0 / decimate=1 / interlaced=0 / bluray_compat=0 / constrained_intra=0 / bframes=3 / b_pyramid=2 / b_adapt=2 / b_bias=0 / direct=3 / weightb=1 / open_gop=0 / weightp=2 / keyint=250 / keyint_min=23 / scenecut=40 / intra_refresh=0 / rc_lookahead=60 / rc=crf / mbtree=1 / crf=27.0 / qcomp=0.70 / qpmin=0 / qpmax=69 / qpstep=4 / ip_ratio=1.40 / aq=1:0.50
Encoded date : UTC 2012-08-13 04:14:14
Tagged date : UTC 2012-08-13 04:14:18

Audio
ID : 2
Format : AAC
Format/Info : Advanced Audio Codec
Format profile : HE-AAC / LC
Codec ID : 40
Duration : 50mn 24s
Bit rate mode : Variable
Bit rate : 64.0 Kbps
Maximum bit rate : 74.9 Kbps
Channel(s) : 2 channels
Channel positions : Front: L R
Sampling rate : 48.0 KHz / 24.0 KHz
Compression mode : Lossy
Delay relative to video : 83ms
Stream size : 23.1 MiB (12%)
Encoded date : UTC 2012-08-13 04:14:18
Tagged date : UTC 2012-08-13 04:14:18

Enjoy and do seed the torrent.... nd leave ur comments.

Related Torrents

torrent name size files age seed leech

Sharing Widget


Download torrent
2.8 GB
seeders:0
leechers:0
Dragon Ball Z Movies



To share this torrent use the code below and insert it into comments, status messages, forum posts or your signature.

Torrent: Dragon Ball Z Movies

Trackers

tracker name
udp://tracker.publicbt.com:80/announce
udp://tracker.istole.it:80/announce
udp://tracker.openbittorrent.com:80/announce
udp://tracker.ccc.de:80/announce
udp://fr33domtracker.h33t.com:3310/announce
µTorrent compatible trackers list

Locations

name
KickassTorrents
Torrent hash: C7D5492F73A27B70B28BAB08954609F3F0072046

Uploader Comments

0
avasthy0547
Uploader
it is in english but no subs

All Comments

audio
0/10
video
0/10
please, leave only comments related to that torrent
Sign In

dude we need more seeds
Does this have the American music or original Japanese music?
it is in english but no subs
is it jap dub nd english sub?

User Opinions

Report a bug