Dr. Seuss The Lorax 2012 Cam V2 XviD Feel-Free

seeders: 0
leechers: 0
updated:
Added by feel-free20.34K in Movies > Animation
Torrent verified. Downloaded 10 times.

Summary:

A 12-year-old boy searches for the one thing that will enable him to win the affection of the girl of his dreams. To find it he must discover the story of the Lorax, the grumpy yet charming creature who fights to protect his world.

Written by 5fingerdis65.73K
Available in versions: 1080p720pBDRipHDRiPDVDRip
Dr. Seuss The Lorax 2012 Cam V2 XviD Feel-Free (Size: 874.44 MB)
  dr-seuss-the-lorax-movie-poster-337x500.jpg 18.08 KB
  Dr. Seuss The Lorax 2012 Cam V2 XviD Feel-Free.avi 873.51 MB
  Dr. Seuss The Lorax 2012 Cam V2 XviD Feel-Free.nfo 3.48 KB
  Torrent downloaded from extratorrent.com.txt 171 bytes
  vlcsnap-2012-03-13-18h52m54s168.png 203.84 KB
  vlcsnap-2012-03-13-18h53m39s108.png 185.04 KB
  vlcsnap-2012-03-13-18h54m13s185.png 247.39 KB
  vlcsnap-2012-03-13-18h56m28s249.png 297.73 KB

Description

image


http://cdn.teenhollywood.com...rax-movie-poster-337x500.jpg


Genre:Animation | Family | Fantasy
Language:English
IMDb:http://www.imdb.com/title/tt1482459/
Source:LUM1X/INSPiRAL NEW AUDIO Thanks!
Encoder:Tony

Format : AVI
Format/Info : Audio Video Interleave
File size : 874 MiB
Duration : 1h 18mn
Overall bit rate : 1 552 Kbps

Video
ID : 0
Format : MPEG-4 Visual
Format profile : Advanced Simple@L5
Format settings, BVOP : 1
Format settings, QPel : No
Format settings, GMC : No warppoints
Format settings, Matrix : Default (H.263)
Codec ID : XVID
Codec ID/Hint : XviD
Duration : 1h 18mn
Bit rate : 1 350 Kbps
Width : 640 pixels
Height : 304 pixels
Display aspect ratio : 2.2:1
Frame rate : 25.000 fps
Color space : YUV
Chroma subsampling : 4:2:0
Bit depth : 8 bits
Scan type : Progressive
Compression mode : Lossy
Bits/(Pixel*Frame) : 0.278
Stream size : 760 MiB (87%)
Writing library : XviD 1.2.1 (UTC 2008-12-04)

Audio
ID : 1
Format : AC-3
Format/Info : Audio Coding 3
Mode extension : CM (complete main)
Codec ID : 2000
Duration : 1h 18mn
Bit rate mode : Constant
Bit rate : 192 Kbps
Channel(s) : 2 channels
Channel positions : Front: L R
Sampling rate : 48.0 KHz
Bit depth : 16 bits
Compression mode : Lossy
Stream size : 108 MiB (12%)
Alignment : Aligned on interleaves
Interleave, duration : 40 ms (1.00 video frame)
Interleave, preload duration : 512 ms


Plot:
A 12-year-old boy searches for the one thing that will enable him to win the affection of the girl of his dreams. To find it he must discover the story of the Lorax, the grumpy yet charming creature who fights to protect his world.

TRAILER:
[embed=youtube]http://www.youtube.com/watch?v=1bHdzTUNw-4&feature=player_embedded[/embed]


image
image
image
image

Greets:

CRYS,IMAGINE,LKRG,FXG,3Li,FLAWL3SS,TA,iLLUSiON,EMBER,HOPE,GooN,BBnRG,NOGRP,ETRG,BHRG,iLLUMiNATi,MiSTERE.ViSiON,DTRG SAFCuk009,LU,TheFalcon007,MYSTiC,PrisM,Noir,WBZ,LAP,Rx,Kingdom,SAFCuk009+Fabreezy,HDLiTE,TWiZTED,ExtraTorrentRG.ELEKTRI4KA,MAGNAT,CM8
And to all the other p2p grps past and present




Make sure its a real Feel-Free release @ http://extratorrent.com

Thanks to all who promotes release Feel-Free !!!

Related Torrents

torrent name size files age seed leech

Sharing Widget


Download torrent
874.44 MB
seeders:0
leechers:0
Dr. Seuss The Lorax 2012 Cam V2 XviD Feel-Free



To share this torrent use the code below and insert it into comments, status messages, forum posts or your signature.

Torrent: Dr. Seuss The Lorax 2012 Cam V2 XviD Feel-Free

Trackers

tracker name
udp://tracker.openbittorrent.com:80/announce
http://tracker.openbittorrent.com/announce
udp://tracker.1337x.org:80/announce
http://tracker.istole.it/announce
udp://tracker.istole.it:80/announce
udp://tracker.publicbt.com:80/announce
http://pow7.com/announce
http://exodus.desync.com:6969/announce
http://tracker.publicbt.com/announce
http://tracker.novalayer.org:6969/announce
ĀµTorrent compatible trackers list

Locations

name
KickassTorrents
ExtraTorrent
ThePirateBay
Torrent hash: 0E55198B83C443A719E5E65F15F7B376F02A2368

All Comments

audio
5/10
video
5/10
please, leave only comments related to that torrent
Sign In

audio: 1video: 1
don't bother download
audio: 9video: 9
not a bad movie and quality is pretty good for a cam
audio: 1video: 1
where is the 720p, i have been waiting so long for it!
not out int he uk yet so not expecting 720 yet

ciniva protected
buy a boxee,cinavia does not effect them

audio: 4video: 1
the audio is terrible! blurry, not a great quality
awful quality
Show More All

User Opinions

Report a bug Open chat