Don Omar - Danza Kuduro ft. Lucenzo HD 720p(RaHuL {tHe HuNk})[Silver RG]

seeders: 2
leechers: 1
updated:
Added by FaSha5aNgY1234942 in Movies > Music videos
Torrent verified. Downloaded 10 times.

Don Omar - Danza Kuduro ft. Lucenzo HD 720p(RaHuL {tHe HuNk})[Silver RG] (Size: 54.07 MB)
  Don Omar - Danza Kuduro ft. Lucenzo HD 720p(RaHuL {tHe HuNk})[Silver RG].mp4 50.79 MB
  Don Omar - Danza Kuduro ft. Lucenzo HD 720p(RaHuL {tHe HuNk})[Silver RG].bmp 1.93 MB
  Don Omar - Danza Kuduro ft. Lucenzo HD 720p(RaHuL {tHe HuNk})[Silver... 560.7 KB
  Don Omar - Danza Kuduro ft. Lucenzo HD 720p(RaHuL {tHe HuNk})[Silver... 509.57 KB
  Don Omar - Danza Kuduro ft. Lucenzo HD 720p(RaHuL {tHe HuNk})[Silver... 306.83 KB
  info.txt 7 KB
  LiKe Me If U lIkE mY wOrK....on FACEBOOK.txt 367 bytes
  Visit mE....for more uploads of mine.txt 363 bytes
  tracked_by_h33t_com.txt 193 bytes
  Torrent downloaded from Silvertorrents.me.txt 53 bytes
  Torrent downloaded from Limetorrents.com.txt 48 bytes
  Torrent downloaded from extratorrent.com.txt 48 bytes
  Torrent downloaded from Demonoid.me.txt 46 bytes
  Torrent downloaded from Kickasstorrent.com.txt 17 bytes
  Please Dont Forget To Say Thanks.txt 12 bytes

Description

Description

http://img545.imageshack.us/img545/5677/rahulthehunkcase.png


image
::General::
Complete name : Don Omar - Danza Kuduro ft. Lucenzo HD 720p(RaHuL {tHe HuNk})[Silver RG]\Don Omar - Danza Kuduro ft. Lucenzo HD 720p(RaHuL {tHe HuNk})[Silver RG].mp4
Format : MPEG-4
Format profile : Base Media
Codec ID : isom
File size : 50.8 MiB
Duration : 3mn 56s
Overall bit rate : 1 803 Kbps
Encoded date : UTC 2011-08-31 13:22:49
Tagged date : UTC 2011-08-31 13:22:49

image
::Video::
ID : 1
Format : AVC
Format/Info : Advanced Video Codec
Format profile : High@L3.1
Format settings, CABAC : Yes
Format settings, ReFrames : 4 frames
Codec ID : avc1
Codec ID/Info : Advanced Video Coding
Duration : 3mn 55s
Bit rate : 1 652 Kbps
Maximum bit rate : 2 927 Kbps
Width : 1 280 pixels
Height : 720 pixels
Display aspect ratio : 16:9
Frame rate mode : Constant
Frame rate : 24.000 fps
Color space : YUV
Chroma subsampling : 4:2:0
Bit depth : 8 bits
Scan type : Progressive
Bits/(Pixel*Frame) : 0.075
Stream size : 46.4 MiB (91%)
Writing library : x264 core 115 r1937 aa21558
Encoding settings : cabac=1 / ref=3 / deblock=1:0:0 / analyse=0x3:0x133 / me=hex / subme=5 / psy=1 / psy_rd=0.00:0.00 / mixed_ref=0 / me_range=16 / chroma_me=1 / trellis=1 / 8x8dct=1 / cqm=0 / deadzone=21,11 / fast_pskip=1 / chroma_qp_offset=0 / threads=3 / sliced_threads=0 / nr=0 / decimate=1 / interlaced=0 / bluray_compat=0 / constrained_intra=0 / bframes=16 / b_pyramid=2 / b_adapt=1 / b_bias=0 / direct=1 / weightb=0 / open_gop=0 / weightp=2 / keyint=250 / keyint_min=23 / scenecut=40 / intra_refresh=0 / rc_lookahead=40 / rc=crf / mbtree=1 / crf=23.0 / qcomp=0.60 / qpmin=0 / qpmax=69 / qpstep=4 / ip_ratio=1.40 / aq=1:1.00
Encoded date : UTC 2011-08-31 13:22:49
Tagged date : UTC 2011-08-31 13:22:53

image
::Audio::
ID : 2
Format : AAC
Format/Info : Advanced Audio Codec
Format profile : LC
Codec ID : 40
Duration : 3mn 56s
Bit rate mode : Variable
Bit rate : 151 Kbps
Maximum bit rate : 166 Kbps
Channel(s) : 2 channels
Channel positions : Front: L R
Sampling rate : 44.1 KHz
Compression mode : Lossy
Stream size : 4.25 MiB (8%)
Encoded date : UTC 2011-08-31 13:22:52
Tagged date : UTC 2011-08-31 13:22:53
:: Trackers ::
udp://tracker.1337x.org:80/announce

http://pow7.com/announce

http://9.rarbg.com:2710/announce

http://tracker.publicbt.com:80/announce

http://exodus.desync.com/announce

http://tracker.istole.it/announce

http://tracker.torrent.to:2710/announce

http://tracker.novalayer.org:6969/announce

http://10.rarbg.com/announce

image
http://img225.imageshack.us/img225/6811/donomardanzakuduroftluc.png
http://img835.imageshack.us/img835/6811/donomardanzakuduroftluc.png
http://img809.imageshack.us/img809/6811/donomardanzakuduroftluc.png
http://img221.imageshack.us/img221/2220/donomardanzakuduroftlucqp.png

::Greetz::
rahulthehunk with kkhan ,EMAD,MXMG,BigW,AliBaloch,AllSilverRGEncoders,TorrentStateRG,1337x,ExtraTorrent,H33t,and and all other P2P Releasers
::Note::
Make sure its real Silver RG Release From Silver RG Account
http://i.min.us/iKZEe.png
image

LiKe Me If U lIkE mY wOrK....
on Facebook..U cAn PoSt YoUr ReQuEsTs On My PaGe I wIlL tRy To Do It As BeSt I cAn..

http://img808.imageshack.us/img808/6140/facebookkd.png
https://www.facebook.com/pag...sEsSilver-RG/234050669946038
http://bt.wrzru.com/bitbucket/seed%20&%20enjoy.gif
For Promotional Use Only... Remember to support the artists...
Anyway enjoy the Music,it is free!!!!

NO COPYRIGHT INFRINGEMENT INTENDED

ENCODER-RaHuL {tHe HuNk}
REQUESTED

Sharing Widget


Download torrent
54.07 MB
seeders:2
leechers:1
Don Omar - Danza Kuduro ft. Lucenzo HD 720p(RaHuL {tHe HuNk})[Silver RG]



To share this torrent use the code below and insert it into comments, status messages, forum posts or your signature.

Torrent: Don Omar - Danza Kuduro ft. ...RaHuL {tHe HuNk})[Silver RG]

Trackers

tracker name
udp://tracker.openbittorrent.com:80/announce
http://exodus.desync.com/announce
udp://tracker.istole.it:80/announce
udp://tracker.publicbt.com:80/announce
udp://tracker.1337x.org:80/announce
http://tracker.zokio.net:8080/announce
http://inferno.demonoid.me:3402/announce
http://tracker.openbittorrent.com/announce
http://cpleft.com:2710/announce
http://tracker.istole.it/announce
http://10.rarbg.com/announce
http://tracker.torrentbay.to:6969/announce
http://i.bandito.org/announce
http://tracker.publicbt.com/announce
http://papaja.v2v.cc:6970/announce
http://9.rarbg.com:2710/announce
http://tracker.novalayer.org:6969/announce
µTorrent compatible trackers list

Locations

name
KickassTorrents
Limetorrents
Torrent hash: 9BCCD461DAF03B10A7AD6CE033435F88C30EB607

All Comments

audio
0/10
video
0/10
please, leave only comments related to that torrent
Sign In

User Opinions

toot8659335, shark0011369, Zumo7831934, dv1301932, u17r4737, AymeeButt359, dj_sapa333, cemeterysorip315, atroposramm113, haseebkhokhar69 ... And 7 more
pm_candidate3370
Report a bug