Deuce Bigalow 1_Male Gigalow [1999]DvdRip.XviD.(.avi)

seeders: 0
leechers: 0
updated:
Added in Movies
Torrent verified. Downloaded 10 times.

Summary:

Some Guys Don't Have All The Luck.
Deuce Bigalow is a fish tank cleaner who gets a temporary job watching over a gigolo's house. But when Deuce mistakenly answers the gigolo's business phone. He is forced to compensate by becoming a gigolo himself!

Written by geogsm13.95K
Available in versions: 1080p720pDVDRip
Deuce Bigalow 1_Male Gigalow [1999]DvdRip.XviD.(.avi) (Size: 1.22 GB)
  Deuce Bigalow 1_Male Gigalow (1999).avi 1.19 GB
  sample.avi 25.5 MB

Description

Deuce Bigalow 1_Male Gigalow [1999]DvdRip.XviD.(.avi)


100% Clean, Tested & Working

---------------------------------------------------------------------------

Storyline:
---------
Deuce Bigalow is a less than attractive, down on his luck aquarium cleaner. One day he runs into a male gigolo who asks him to look after his precious fish while he is away on business. However, he wrecks the house and needs quick money to repair it. The only way he can make it is to become a gigolo himself, taking on an unusual mix of female clients. He encounters a couple of problems, though. He falls in love with one of his unusual clients, and a sleazy police officer his hot on his trail.


Cast:
----
Rob Schneider.............Deuce Bigalow
William Forsythe..........Detective Chuck Fowler
Eddie Griffin.............T.J. Hicks
Arija Bareikis............Kate
Oded Fehr.................Antoine Laconte
Gail O'Grady..............Claire
Richard Riehle............Bob Bigalow
Jacqueline Obradors.......Elaine Fowler
Big Boy...................Fluisa
Amy Poehler...............Ruth
Dina Platias ..........Bergita
Torsten Voges.............Tina
Deborah Lemen.............Carol
Bree Turner...............Allison
Andrew Shaifer............Neil


Video Details:
-------------
Format : AVI
Format/Info : Audio Video Interleave
File size : 1.19 GiB
Duration : 1h 28mn
Overall bit rate : 1 933 Kbps
Writing application : VirtualDubMod 1.5.4.1 (build 2178/release)
Writing library : VirtualDubMod build 2178/release


Video:
-----
Format : MPEG-4 Visual
Format profile : Advanced Simple@L5
Format settings, BVOP : Yes
Format settings, QPel : No
Format settings, GMC : No warppoints
Format settings, Matrix : Custom
Codec ID : XVID
Codec ID/Hint : XviD
Duration : 1h 28mn
Bit rate : 1 542 Kbps
Width : 720 pixels
Height : 400 pixels
Display aspect ratio : 16:9
Frame rate : 25.000 fps
Color space : YUV
Chroma subsampling : 4:2:0
Bit depth : 8 bits
Scan type : Progressive
Bits/(Pixel*Frame) : 0.214
Stream size : 976 MiB (80%)
Writing library : XviD 58


Audio:
-----
Format : AC-3
Format/Info : Audio Coding 3
Mode extension : CM (complete main)
Codec ID : 2000
Duration : 1h 28mn
Bit rate mode : Constant
Bit rate : 384 Kbps
Channel(s) : 6 channels
Channel positions : Front: L C R, Side: L R, LFE
Sampling rate : 48.0 KHz
Bit depth : 16 bits
Stream size : 243 MiB (20%)
Alignment : Aligned on interleaves
Interleave, duration : 96 ms (2.40 video frames)
Interleave, preload duration : 96 ms

----------------------------------------------------------------------------


*Remember To Seed



*HAVE FUN AND ENJOY*

Related Torrents

torrent name size files age seed leech

Sharing Widget


Download torrent
1.22 GB
seeders:0
leechers:0
Deuce Bigalow 1_Male Gigalow [1999]DvdRip.XviD.(.avi)



To share this torrent use the code below and insert it into comments, status messages, forum posts or your signature.

Torrent: Deuce Bigalow 1_Male Gigalow [1999]DvdRip.XviD.(.avi)

Trackers

tracker name
udp://tracker.publicbt.com:80/announce
udp://tracker.istole.it:80/announce
udp://tracker.openbittorrent.com:80/announce
http://10.rarbg.com/announce
http://tracker.openbittorrent.com/announce
http://bt1.the9.com:6969/announce
http://nyaatorrents.info:3277/announce
http://nemesis.1337x.org/announce
http://genesis.1337x.org:1337/announce
http://tracker.istole.it/announce
http://exodus.desync.com:6969/announce
http://tracker.publicbt.com/announce
http://torrent-download.to:5869/announce.php
µTorrent compatible trackers list

Locations

name
ThePirateBay
Torrent hash: ea6524785e67b34e1340785d1956037591263c91

All Comments

audio
9/10
video
8/10
please, leave only comments related to that torrent
Sign In

Its stuck at 93% someone help me please....
audio: 9video: 8
weeeeeeeeee :)
audio: 10video: 10
Very funny! Thanks.
audio: 10video: 6
nice copy, good movie
audio: 10video: 6
thanks.
audio: 10video: 10
Great upload

User Opinions

Report a bug