De Heineken Ontvoering 2011 DVD9rip Dutch Klam

seeders: 0
leechers: 0
updated: 1 week ago
Added on Feb 22, 2012 in Movies
Torrent verified. Downloaded 0 times.

Summary:
A bold, amateur kidnapping goes wildly awry in this fictionalized account of beer magnate Freddy Heineken's 1983 abduction, which would go on to become one of The Netherlands' most infamous crimes.
Written by Pahly157.86K
report summary
Available in versions: 1080pBDRipHDRiPDVDDVDRip
De Heineken Ontvoering 2011 DVD9rip Dutch Klam (Size: 1.67 GB)
  De Heineken Ontvoering.avi 1.67 GB

Description

With: Rutger Hauer, Reinout Scholten van Aschat and Gijs Naber

De Heineken Ontvoering is geïnspireerd op de bekendste ontvoeringszaak in Nederland. De biermagnaat Alfred Heineken wordt in 1983 samen met zijn chauffeur Ab Doderer ontvoerd door vier mannen, die 35 miljoen gulden losgeld eisen. Vier jonge, op geld beluste criminelen die elkaar al van jongs af aan kennen en een hechte clan vormen, sluiten Heineken en Doderer twee weken lang op in een Amsterdamse loods. De film laat het spannende verhaal van de ontvoering en de jacht op de daders zien, maar biedt ook een kijkje in de psychologische machtsstrijd tussen Heineken en zijn ontvoerders.

------------------------ Dutch Friends ------------------------
---------------------------------------------------------------
- Bezoek ook eens mijn vrienden op: http://www.Film-Test.nl --
----- voor mijn Nederlandse Sync. ondertitels ---- en meer ----
------- http://www.Film-Test.nl ---- voor Films en meer -------
---------------------------------------------------------------

General:

Complete name : De Heineken Ontvoering\De Heineken Ontvoering.avi
Format : AVI
Format/Info : Audio Video Interleave
File size : 1.67 GiB
Duration : 1h 57mn
Overall bit rate : 2 023 Kbps

Video:

Format : MPEG-4 Visual
Format profile : Simple@L3
Format settings, BVOP : No
Format settings, QPel : No
Format settings, GMC : No warppoints
Format settings, Matrix : Default (H.263)
Codec ID : XVID
Codec ID/Hint : XviD
Duration : 1h 57mn
Bit rate : 1 564 Kbps
Width : 720 pixels
Height : 304 pixels
Display aspect ratio : 2.35:1
Frame rate : 25.000 fps
Color space : YUV
Chroma subsampling : 4:2:0
Bit depth : 8 bits
Scan type : Progressive
Compression mode : Lossy
Bits/(Pixel*Frame) : 0.286
Stream size : 1.29 GiB (77%)
Writing library : XviD 1.1.2 (UTC 2006-11-01)

Audio:

Format : AC-3
Format/Info : Audio Coding 3
Mode extension : CM (complete main)
Codec ID : 2000
Duration : 1h 57mn
Bit rate mode : Constant
Bit rate : 448 Kbps
Channel(s) : 6 channels
Channel positions : Front: L C R, Side: L R, LFE
Sampling rate : 48.0 KHz
Bit depth : 16 bits
Compression mode : Lossy
Stream size : 378 MiB (22%)
Alignment : Aligned on interleaves
Interleave, duration : 32 ms (0.80 video frame)
Interleave, preload duration : 288 ms

Related Torrents

torrent name size files age seed leech

Sharing Widget


Download torrent
1.67 GB
seeders:0
leechers:0
De Heineken Ontvoering 2011 DVD9rip Dutch Klam

Trackers

tracker name Status
udp://tracker.ex.ua:80/announce
outdated
http://tracker.torrentbay.to:6969/announce
outdated
http://exodus.desync.com/announce
outdated
http://10.rarbg.com/announce
private
http://pow7.com/announce
outdated
http://tracker.publicbits.com/announce
outdated
http://cpleft.com:2710/announce
outdated
http://tracker.torrentfrancais.com/announce
outdated
udp://tracker.openbittorrent.com:80/announce
outdated
udp://tracker.1337x.org:80/announce
outdated
udp://tracker.publicbt.com:80/announce
outdated
http://inferno.demonoid.me:3418/announce
outdated
http://tracker.openbittorrent.com/announce
outdated
udp://tracker.ilibr.org:6969/announce
blocked
http://tracker.publicbt.com/announce
deleted
http://i.bandito.org/announce
deleted
http://php.hdcmct.com:2710/announce
error
http://torrentbay.to:6969/announce
error
http://tracker.blazing.de:6969/announce
error
µTorrent compatible trackers list

Locations

name
ThePirateBay
Torrent hash: 3636a675f92ebae889a005f34ad6d4b9d4bd9131

All Comments

audio
0/10
video
0/10
please, leave only comments related to that torrent
or sign-in

Report a bug