Daddy Cool Munde Fool 2013 [1CD Rip Xvid] [Punjabi Movie]

seeders: 0
leechers: 0
updated:
Added in Movies > Bollywood
Downloaded 10 times.

Summary:

A man and his brother love the daughters of the same mother that thier Father loves.

Written by Ascetic_trip20.73K
Available in versions: 720pScreener
Daddy Cool Munde Fool 2013 [1CD Rip Xvid] [Punjabi Movie] (Size: 701.72 MB)
  Daddy Cool Munde Fool 2013 [1CD Rip] [Punjabi Movie].avi 701.72 MB

Description


Download Punjabi Movie Daddy Cool Munde Fool
General

Complete name Daddy Cool Munde Fool 2013 [1CD Rip] [Punjabi Movie].avi

Format : AVI

Format/Info : Audio Video Interleave

File size : 702 MiB

Duration : 2h 6mn

Overall bit rate : 777 Kbps

Writing application : Lavf51.12.1
Video

ID : 0

Format : xvid

Codec ID : xvid

Duration : 2h 6mn

Bit rate : 700 Kbps

Width : 640 pixels

Height : 272 pixels

Display aspect ratio : 2.35:1

Frame rate : 25.000 fps

Bits/(Pixel*Frame) : 0.161

Stream size : 633 MiB (90%)
Audio

ID : 1

Format : MPEG Audio

Format version : Version 1

Format profile : Layer 3

Mode : Joint stereo

Mode extension : MS Stereo

Codec ID : 55

Codec ID/Hint : MP3

Duration : 2h 6mn

Bit rate mode : Constant

Bit rate : 64.0 Kbps

Channel(s) : 2 channels

Sampling rate : 44.1 KHz

Compression mode : Lossy

Stream size : 57.8 MiB (8%)

Alignment : Aligned on interleaves

Interleave, duration : 26 ms (0.65 video frame)

Interleave, preload duration : 26 ms
Movie Screen Shots

Related Torrents

torrent name size files age seed leech

Sharing Widget


Download torrent
701.72 MB
seeders:0
leechers:0
Daddy Cool Munde Fool 2013 [1CD Rip Xvid] [Punjabi Movie]



To share this torrent use the code below and insert it into comments, status messages, forum posts or your signature.

Torrent: Daddy Cool Munde Fool 2013 [1CD Rip Xvid] [Punjabi Movie]

Trackers

tracker name
udp://tracker.openbittorrent.com:80/announce
http://pow7.com/announce
udp://tracker.publicbt.com:80/announce
udp://tracker.istole.it:80/announce
udp://tracker.1337x.org:80/announce
udp://tracker.ccc.de:80/announce
udp://fr33domtracker.h33t.com:3310/announce
ĀµTorrent compatible trackers list

Locations

name
ExtraTorrent
Torrent hash: 45302097BE476113738D9326A561C5A9B4518E1C

All Comments

audio
4/10
video
4/10
please, leave only comments related to that torrent
Sign In

audio: 1video: 1
faltu print!!!!
audio: 7video: 6
thanks !
virus detected
audio: 1video: 1
very good aa
Is is ok to watch, or wait for the better one.....
plzz upload Singh Vs Kaur
22 g aa tan tv te vi aa gi te tusi hune uipload karan nu firde hun aa gi hoyi aa
i also desperately need it in DVDrip.......

audio: 6video: 6
theek thaak hai ..... watchable ...
audio: 8video: 7

User Opinions

Report a bug