Children Who Chase Lost Voices From Deep Below [iNiTiALanIme ENC

seeders: 0
leechers: 1
updated: 1 week ago
Added on Dec 16, 2011 in Movies
Torrent verified. Downloaded 0 times.

Summary:
A coming of age story involving young love and a mysterious music, coming from a crystal radio left as a memento by an absent father, that leads a young heroine deep into a hidden world.
Written by MIke173443
report summary
Available in versions: 1080p720pBDRipHDRiPDVDRip
Children Who Chase Lost Voices From Deep Below [iNiTiALanIme ENC (Size: 1.47 GB)
  Children Who Chase Lost Voices from Deep Below [iNiTiALanIme ENCODE].avi 1.47 GB
  INITIAL.nfo 6.95 KB
  READ this before playing the Movie.txt 473 bytes
  www.Torrenting.com.txt 473 bytes

Description

.

http://www.torrenting.com : Once & For all ;)


www . Torrenting . Com

(((((((((((((= Enjoy No RAR releases =))))))))))))))))))))


...................................NFO:....................................

.


















SINCE 2011






iNiTiALanIme Presents............


Children Who Chase Lost Voices From Deep Below
image




image

General
Encoder : unsentletter [iNiTiAlanIme]
Language : English

Complete name : Children Who Chase Lost Voices From Deep Below [iNiTiALanIme ENCODE]\Children Who Chase Lost Voices from Deep Below [iNiTiALanIme ENCODE].avi
Format : AVI
Format/Info : Audio Video Interleave
Format profile : OpenDML
File size : 1.47 GiB
Duration : 1h 55mn
Overall bit rate : 1 814 Kbps
Movie name : Children Who Chase Lost Voices from Deep Below [iNiTiALanIme ENCODE]
Writing application : Lavf52.78.4
Original source form/Name : HOSHI_O_KODOMO

Video
ID : 0
Format : AVC
Format/Info : Advanced Video Codec
Codec ID : H264
Duration : 1h 55mn
Bit rate : 1 354 Kbps
Width : 720 pixels
Height : 404 pixels
Display aspect ratio : 16:9
Frame rate : 23.976 fps
Color space : YUV
Chroma subsampling : 4:2:0
Bits/(Pixel*Frame) : 0.194
Stream size : 1.10 GiB (75%)

Audio
ID : 1
Format : AC-3
Format/Info : Audio Coding 3
Mode extension : CM (complete main)
Codec ID : 2000
Duration : 37mn 49s
Bit rate mode : Constant
Bit rate : 448 Kbps
Channel(s) : 6 channels
Channel positions : Front: L C R, Side: L R, LFE
Sampling rate : 48.0 KHz
Bit depth : 16 bits
Stream size : 121 MiB (8%)
Alignment : Aligned on interleaves
Interleave, duration : 98 ms (2.35 video frames)
Interleave, preload duration : 32 ms




image

A coming of age story involving young love and a mysterious music, coming from a crystal radio left as a memento by an absent father, that leads a young heroine deep into a hidden world.


image

Hisako Kanemoto ... Asuna Watase (voice)
Kazuhiko Inoue ... Ryuji Morisaki (voice)
Miyu Irino ... Shin / Shun (voice)
Rina Hidaka ... Mana (voice)
Fumiko Orikasa ... Asuna's Mother (voice)
Sumi Shimamoto ... Risa (voice)
Junko Takeuchi ... Mimi (voice)



image

image
image
image
image
image
image
image
image
image
image



image



image

all encodes by unsentletter are done in a generic format to work with **XBOX360**, PS3, **Some Media Players**, Android and Symbian.
**tested streaming to XBOX360 & Media Player using Vuze Transcoder and Wild Media Server... For best results I recomend Vuze Transcoder**




image

iNiTiALanIme gives greets to unsentletter, bigspawn, jaiwalla, deadlySniper, amartis, paranoid53, DiVERSiTY RG, BHRG, PRESTiGE RG, all anime groups and fansub groups, all the staff at our upload sites & all the people who make p2p what it is
Remember p2p is about more than free movies and music its a community be involved!! Dont Hit and Run !! Seed back what you leech!!


image


iNiTiALanIme Is looking for members. Have you got something to offer? DO you want to be part of our team? Wanted -anime sources- encoders - seedbox's anything else you may have to offer - contact us at initialanime@yahoo.com


image










INITIALANIME 2011

Related Torrents

torrent name size files age seed leech

Sharing Widget


Download torrent
1.47 GB
seeders:0
leechers:1
Children Who Chase Lost Voices From Deep Below [iNiTiALanIme ENC

Trackers

tracker name Status
udp://tracker.openbittorrent.com:80/announce
outdated
udp://tracker.publicbt.com:80/announce
outdated
http://tracker.openbittorrent.com/announce
outdated
http://exodus.desync.com:6969/announce
blocked
http://tracker.publicbt.com/announce
deleted
µTorrent compatible trackers list

Locations

name
ThePirateBay
Fenopy
Limetorrents
Torrent hash: 72728b40e54d3da8aceab3387fb32b7a218a07e9

All Comments

audio
0/10
video
0/10
please, leave only comments related to that torrent
or sign-in

0
DarkMarkie88 • 07 Apr 2012, 01:19 Show comment
takes way to bloody long, no assurance its in English (no comments) and will rather wait till they announce a English dub and someone competent makes a class A torrent file of it.

User Opinions

Report a bug