Chat Room [DVD5] [ENG] [AC3] [UTorrentor]

seeders: 0
leechers: 0
Added on Nov 8, 2010 in Movies
Torrent verified. Downloaded 0 times.

Summary:
A group of teenagers encourage each other's bad behavior in a chatroom "Chelsea Teens!".
Written by xDominicx170.96K
report summary
Available in versions: 720pDVDRip
Chat Room [DVD5] [ENG] [AC3] [UTorrentor] (Size: 2.97 GB)
  Chat Room.nfo 4.12 KB
  Torrent downloaded from FT2.co.uk.txt 466 bytes
  Chat Room

Description


=====================================================================================

[ Another free, high quality, ready to burn DVD I will be adding new torrents on a daily basis - Remember to seed ]

=====================================================================================

MOVIE TITLE: Chat Room

LANGUAGE: English

MOVIE SUBS: No

BURN TESTED: Yes

FORMAT: Pal

GENRE: Drama | Thriller

RUNTIME: 94 Minutes

YEAR: 2010

IMDB LINK: http://www.imdb.com/title/tt1319704/
/>
=====================================================================================

MOVIE DESC:



A psychological thriller about teenagers who encourage each other's destructive behavior. When jaded teens Jim, Eva, Emily and Mo meet William online, they're seduced by his charisma. But William isn't what he seems. He's calculating and manipulative and doesn't have time for people in the real world. Jim is vulnerable and he has no idea how dangerous his new friendship with William will be. When Jim confesses he's on anti-depressants, William knows he's found a victim. He vows to help Jim off his drugs, and the rest of the group fall in line.



What begins as friendly advice to help Jim becomes twisted and Eva and Mo realise the deadly game William's playing, but the wheels are in motion. Jim is set on a path of self-destruction, and is going to do the unthinkable. As Eva, Emily and Mo try to save Jim, William begins a terrifying game of cat and mouse chasing them across the internet, shutting down their systems, and cutting them off from his victim. Fantasy meets reality when William and Jim are face to face in rush hour on the underground. Without the faceless security of the online world, everything becomes real. It's now a race against time to save Jim, but the clock is ticking... and we fear someone must die

=====================================================================================

MOVIE SPECS:



GENERAL:

Complete name : Chat Room [DVD 5]

Format : MPEG-PS

File size : 2.97 GB

Duration : 94 Minutes

Overall bit rate : 4 727 Kbps



VIDEO:

ID : 224 (0xE0)

Format : MPEG Video

Format version : Version 2

Format profile : Main@Main

Format settings, BVOP : Yes

Format settings, Matrix : Default

Duration : 94 Minutes

Bit rate mode : Variable

Bit rate : 4 185 Kbps

Nominal bit rate : 9 352 Kbps

Width : 720 pixels

Height : 576 pixels

Display aspect ratio : 16:9

Frame rate : 25.000 fps

Standard : PAL

Color space : YUV

Chroma subsampling : 4:2:0

Bit depth : 8 bits

Scan type : Progressive

Bits/(Pixel*Frame) : 0.404

Stream size : 907 MiB (89%)



AUDIO:

ID : 128 (0x80)

Format : AC-3

Format/Info : Audio Coding 3

Mode extension : CM (complete main)

Duration : 94 Minutes

Bit rate mode : Constant

Bit rate : 448 Kbps

Channel(s) : 6 channels

Channel positions : Front: L C R, Side: L R, LFE

Sampling rate : 48.0 KHz

Stream size : 97.0 MiB (9%)

=====================================================================================

TRACKER:

http://www.ft2.co.uk:2710/announce
/>
=====================================================================================

[FOOT NOTE]

If you are happy with this download, it would be nice to hear your views or comments that you might have. Enjoy

[Recommended to join]
http://www.ft2.co.uk/ [copy and paste link to you browser] Come and take a look - FREE

=====================================================================================

Screen Shot Of Chat Room

=====================================================================================

image

=====================================================================================




Related Torrents

torrent name size files age seed leech

Sharing Widget


Download torrent
2.97 GB
seeders:0
leechers:0
Chat Room [DVD5] [ENG] [AC3] [UTorrentor]

Trackers

tracker name Status checked seeders leechers downloads
udp://tracker.openbittorrent.com:80/announce
outdated 22 Aug 2012 - - -
udp://tracker.publicbt.com:80/announce
outdated 22 Aug 2012 - - -
http://tracker.openbittorrent.com/announce
outdated 22 Aug 2012 - - -
http://www.ft2.co.uk:2710/1f079cdb6b14102d385006bb7f0a8f65/announce
outdated 22 Aug 2012 - - -
http://tracker.publicbt.com/announce
deleted 22 Aug 2012 - - -
µTorrent compatible trackers list

Locations

name
1337x
Torrent hash: fbf6e78f51319a2d8c80e9ab96b2d41d4223ff40

All Comments

audio
0/10
video
0/10
please, leave only comments related to that torrent
or sign-in


User Opinions

Report a bug