Celebrity Big Brother S11E14 WS PDTV XviD-W33D

seeders: 0
leechers: 0
Added on Jan 16, 2013 by w33dcapper260 in TV
Downloaded 0 times.

  • View all Celebrity Big Brother episodes
  • Episode title: Series 11 - Day 11 Highlights
  • Episode: S11E14
  • Air date: 14 January 2013
  • IMDb link: 0279550
  • Original run: 09 March 2001 — 29 January 2010
  • Summary:
    Celebrity Big Brother is a television reality game show based on the Dutch show Big Brother, created by producer John de Mol in 1997. The show follows a number of celebrity contestants, known as housemates, who are isolated from the outside world for an extended period of time in a custom built House. Each week, one of the housemates is evicted by a public vote, with the last housemate remaining winning a cash prize for the charity of their choice.
    Written by DawnStar32.11K
    report summary
Celebrity Big Brother S11E14 WS PDTV XviD-W33D (Size: 349.86 MB)
  Celebrity.Big.Brother.S11E14.WS.PDTV.XviD-W33D.avi 349.86 MB

Description

image


If you have anything to offer contact us on w33dcapper@gmail.com



General
Complete name : Celebrity.Big.Brother.S11E14.WS.PDTV.XviD-W33D
Format : AVI
Format/Info : Audio Video Interleave
Format profile : OpenDML
Format settings : rec
File size : 350 MiB
Duration : 44mn 52s
Overall bit rate mode : Variable
Overall bit rate : 1 090 Kbps
Writing application : AVI-Mux GUI 1.17.8.3, Feb 16 201019:42:50

Video
ID : 0
Format : MPEG-4 Visual
Format profile : Advanced Simple@L5
Format settings, BVOP : 2
Format settings, QPel : No
Format settings, GMC : No warppoints
Format settings, Matrix : Default (H.263)
Codec ID : XVID
Codec ID/Hint : XviD
Duration : 44mn 52s
Bit rate : 943 Kbps
Width : 624 pixels
Height : 352 pixels
Display aspect ratio : 16:9
Frame rate : 25.000 fps
Color space : YUV
Chroma subsampling : 4:2:0
Bit depth : 8 bits
Scan type : Progressive
Compression mode : Lossy
Bits/(Pixel*Frame) : 0.172
Stream size : 303 MiB (87%)
Writing library : XviD 1.1.2 (UTC 2006-11-01)

Audio
ID : 1
Format : MPEG Audio
Format version : Version 1
Format profile : Layer 3
Mode : Joint stereo
Codec ID : 55
Codec ID/Hint : MP3
Duration : 44mn 52s
Bit rate mode : Variable
Bit rate : 137 Kbps
Nominal bit rate : 128 Kbps
Channel(s) : 2 channels
Sampling rate : 48.0 KHz
Compression mode : Lossy
Stream size : 44.2 MiB (13%)
Alignment : Aligned on interleaves
Interleave, duration : 24 ms (0.60 video frame)
Interleave, preload duration : 203 ms
Writing library : LAME3.90.
Encoding settings : -m j -V 4 -q 2 -lowpass 17.6 --abr 128



If you have anything to offer contact us on w33dcapper@gmail.com



Related Torrents

torrent name size files age seed leech

Sharing Widget


Download torrent
349.86 MB
seeders:0
leechers:0
Celebrity Big Brother S11E14 WS PDTV XviD-W33D

Trackers

tracker name Status checked seeders leechers downloads
udp://tracker.1337x.org:80/announce
outdated 16 Jan 2013 - - -
udp://inferno.demonoid.com:3407/announce
outdated 16 Jan 2013 - - -
udp://tracker.istole.it:80/announce
outdated 16 Jan 2013 - - -
udp://tracker.openbittorrent.com:80/announce
outdated 16 Jan 2013 - - -
udp://tracker.publicbt.com:80/announce
outdated 16 Jan 2013 - - -
http://exodus.desync.com:6969/announce
blocked 16 Jan 2013 - - -
udp://fr33domtracker.h33t.com:3310/announce
deleted 16 Jan 2013 - - -
µTorrent compatible trackers list

Locations

name
KickassTorrents
Torrent hash: 45560D4E29A4F97B10387D1BBAE7D07C54011041

All Comments

audio
6/10
video
6/10
please, leave only comments related to that torrent
or sign-in
0
TheSnowman1728 • 03 March 2013, 07:28
torrent downloaded
Show comment
audio: 6video: 6
Descent thanks
0
DragonSlash12.66K • 17 January 2013, 01:56
torrent downloaded
Show comment
same ep as Celebrity.Big.Brother.UK.S11E13.PDTV.x264-W4F

User Opinions

Report a bug