Cars.2.2011.BRRip.720p.x264.Feel-Free

seeders: 0
leechers: 0
updated:
Added by feel-free20.34K in Movies > Animation
Torrent verified. Downloaded 0 times.

  • add Cars 2 to bookmarks
  • Release date: 18 June 2011
  • Writers: John Lasseter (original story by), Brad Lewis (original story by), Dan Fogelman (original story by), Ben Queen (screenplay)
  • Language: English
Summary:

Star race car Lightning McQueen and his pal Mater head overseas to compete in the World Grand Prix race. But the road to the championship becomes rocky as Mater gets caught up in an intriguing adventure of his own: international espionage.

Written by 5fingerdis65.72K
Cars.2.2011.BRRip.720p.x264.Feel-Free (Size: 2.56 GB)
  2mu9ewlmwb2vzljsw8ts.jpg 458.54 KB
  Cars.2.2011.BRRip.720p.x264 2.91 KB
  Cars.2.2011.BRRip.720p.x264.Feel-Free.mp4 2.56 GB
  Torrent downloaded from extratorrent.com.txt 171 bytes
  vlcsnap-00001.png 474.47 KB
  vlcsnap-00002.png 686.27 KB
  vlcsnap-00003.png 1.01 MB
  vlcsnap-00004.png 1.05 MB
  vlcsnap-00005.png 1.12 MB

Description

http://www.pix2links.com/image/izgPK.jpg


Genre:Animation | Adventure | Comedy
Language:English
IMDb:http://www.imdb.com/title/tt1216475/
Source:1080p.Bluray.x264-METiS Thanks!

Format : MPEG-4
Format profile : Base Media
Codec ID : isom
File size : 2.56 GiB
Duration : 1h 47mn
Overall bit rate : 3 418 Kbps

Video
ID : 1
Format : AVC
Format/Info : Advanced Video Codec
Format profile : High@L4.1
Format settings, CABAC : Yes
Format settings, ReFrames : 3 frames
Codec ID : avc1
Codec ID/Info : Advanced Video Coding
Duration : 1h 47mn
Bit rate mode : Variable
Bit rate : 3 000 Kbps
Maximum bit rate : 17.9 Mbps
Width : 1 280 pixels
Height : 536 pixels
Display aspect ratio : 2.35:1
Frame rate mode : Constant
Frame rate : 23.976 fps
Color space : YUV
Chroma subsampling : 4:2:0
Bit depth : 8 bits
Scan type : Progressive
Bits/(Pixel*Frame) : 0.182
Stream size : 2.22 GiB (87%)
Writing library : x264

Audio
ID : 2
Format : AAC
Format/Info : Advanced Audio Codec
Format version : Version 4
Format profile : LC
Format settings, SBR : No
Codec ID : 40
Duration : 1h 47mn
Bit rate mode : Variable
Bit rate : 446 Kbps
Maximum bit rate : 522 Kbps
Channel(s) : 6 channels
Channel positions : Front: L C R, Side: L R, LFE
Sampling rate : 48.0 KHz
Stream size : 341 MiB (13%)


Plot:
Star race car Lightning McQueen and his pal Mater head overseas to compete in the World Grand Prix race. But the road to the championship becomes rocky as Mater gets caught up in an intriguing adventure of his own: international espionage

TRAILER:
[embed=youtube]http://www.youtube.com/watch?v=eRQ6YWk4IjQ&feature=player_embedded[/embed]

http://www.pix2links.com/image/3s7W.png
http://www.pix2links.com/image/KzeRi.png
http://www.pix2links.com/image/Sb8sN.png
http://www.pix2links.com/image/mMcdl.png
http://www.pix2links.com/image/9BStd.png

Greets:

CRYS,IMAGINE,LKRG,FXG,3Li,iLLUMiNATi,FLAWL3SS,TA,iLLUSiON,ViSiON,DTRG SAFCuk009,LU,TheFalcon007,MYSTiC,PrisM,Noir,WBZ,LAP,Rx,Kingdom,SAFCuk009+Fabreezy,HDLiTE,TWiZTED,ETRG.ELEKTRI4KA,MAGNAT,CM8
And to all the other p2p grps past and present




Make sure its a real Feel-Free release @ http://extratorrent.com

Thanks to all who promotes release Feel-Free !!!

Related Torrents

torrent name size files age seed leech

Sharing Widget


Download torrent
2.56 GB
seeders:0
leechers:0
Cars.2.2011.BRRip.720p.x264.Feel-Free



To share this torrent use the code below and insert it into comments, status messages, forum posts or your signature.

Torrent: Cars.2.2011.BRRip.720p.x264.Feel-Free

Trackers

tracker name
http://pow7.com/announce
udp://tracker.openbittorrent.com:80/announce
udp://tracker.publicbt.com:80/announce
http://tracker.openbittorrent.com/announce
udp://tracker.1337x.org:80/announce
udp://tracker.istole.it:80/announce
http://tracker.istole.it/announce
http://10.rarbg.com/announce
http://tracker.publicbt.com/announce
http://9.rarbg.com:2710/announce
http://tracker.novalayer.org:6969/announce
µTorrent compatible trackers list

Locations

name
KickassTorrents
ExtraTorrent
ThePirateBay
Limetorrents
Torrent hash: A945275509AAD78960F8F128ADB6A9B58AE6A7AD

All Comments

audio
10/10
video
10/10
please, leave only comments related to that torrent
Sign In


User Opinions

VBCreations2080, chenyy1877
Report a bug Open chat