Buffalo '66.1998.DVDRip.XviD

seeders: 0
leechers: 0
Added in Movies
Downloaded 0 times.


Billy is released after five years in prison. In the next moment, he kidnaps teenage student Layla and visits his parents with her, pretending she is his girlfriend and they will soon marry (and forcing her to say the same).

Written by 5fingerdis63.68K
Available in versions: 1080p720pBDRipDVDRip
Buffalo '66.1998.DVDRip.XviD (Size: 697.32 MB)
  Buffalo '66.nfo 1.57 KB
  Buffalo '66.sfv 4.55 KB
  Buffalo 66.part01.rar 14.31 MB
  Buffalo 66.part02.rar 14.31 MB
  Buffalo 66.part03.rar 14.31 MB
  Buffalo 66.part04.rar 14.31 MB
  Buffalo 66.part05.rar 14.31 MB
  Buffalo 66.part06.rar 14.31 MB
  Buffalo 66.part07.rar 14.31 MB
  Buffalo 66.part08.rar 14.31 MB
  Buffalo 66.part09.rar 14.31 MB
  Buffalo 66.part10.rar 14.31 MB
  Buffalo 66.part11.rar 14.31 MB
  Buffalo 66.part12.rar 14.31 MB
  Buffalo 66.part13.rar 14.31 MB
  Buffalo 66.part14.rar 14.31 MB
  Buffalo 66.part15.rar 14.31 MB
  Buffalo 66.part16.rar 14.31 MB
  Buffalo 66.part17.rar 14.31 MB
  Buffalo 66.part18.rar 14.31 MB
  Buffalo 66.part19.rar 14.31 MB
  Buffalo 66.part20.rar 14.31 MB
  Buffalo 66.part21.rar 14.31 MB
  Buffalo 66.part22.rar 14.31 MB
  Buffalo 66.part23.rar 14.31 MB
  Buffalo 66.part24.rar 14.31 MB
  Buffalo 66.part25.rar 14.31 MB
  Buffalo 66.part26.rar 14.31 MB
  Buffalo 66.part27.rar 14.31 MB
  Buffalo 66.part28.rar 14.31 MB
  And 20 files more


Billy Brown has been in jail, but his parents think that he's married and successful. When he can't find anywhere in Buffalo where he can pee, he runs desperately into a dance studio to use the washroom. He winds up kidnapping a dance student, Layla to bring home and show off to his parents. The parents just barely remember their son or care about him, but Layla falls for him.

Format : AVI

Format/Info : Audio Video Interleave

File size : 697 MiB

Duration : 1h 49mn

Overall bit rate : 889 Kbps

Writing application : Nandub v1.0rc2

Writing library : Nandub build 1853/release


Format : MPEG-4 Visual

Codec ID : DIV3

Codec ID/Hint : DivX 3 Low

Duration : 1h 49mn

Bit rate : 739 Kbps

Width : 640 pixels

Height : 352 pixels

Display aspect ratio : 16/9

Frame rate : 23.976 fps

Resolution : 24 bits

Bits/(Pixel*Frame) : 0.137

Stream size : 580 MiB (83%)


Format : MPEG Audio

Format version : Version 1

Format profile : Layer 3

Codec ID : 55

Codec ID/Hint : MP3

Duration : 1h 49mn

Bit rate mode : Variable

Bit rate : 137 Kbps

Channel(s) : 2 channels

Sampling rate : 48.0 KHz

Resolution : 16 bits

Stream size : 108 MiB (15%)

Alignment : Aligned on interleaves

Interleave, duration : 24 ms (0.58 video frame)

Interleave, preload duration : 514 ms

Link: http://www.imdb.com/title/tt0118789/

Related Torrents

torrent name size files age seed leech

Sharing Widget

Download torrent
697.32 MB
Buffalo '66.1998.DVDRip.XviD

To share this torrent use the code below and insert it into comments, status messages, forum posts or your signature.

Torrent: Buffalo '66.1998.DVDRip.XviD


tracker name
µTorrent compatible trackers list


Torrent hash: 9752d3b35638d6eec9e9c7f265e3c280bce094ec

All Comments

please, leave only comments related to that torrent
Sign In

Report a bug