Bring It On (2000)

seeders: 2
leechers: 0
updated:
Added in Movies
Torrent verified. Downloaded 105 times.

Summary:

A champion high school cheerleading squad discovers its previous captain stole all their best routines from an inner-city school and must scramble to compete at this year's championships.

Written by 5fingerdis65.72K
Available in versions: 1080p720pHDRiPx264
Bring It On (2000) (Size: 686.79 MB)
  Bring It On.avi 686.79 MB

Description

It's good quality. Straight PAL DVD transfer.

Snapshots:
http://bayimg.com/image/habfpaaca.jpg

Poster:
http://bayimg.com/image/fabfpaaca.jpg

Icon:
http://bayimg.com/image/gabfaaaca.jpg

-HR

---------------------------------------------------General
Complete name : Bring It On.avi
Format : AVI
Format/Info : Audio Video Interleave
File size : 687 MiB
Duration : 1h 34mn
Overall bit rate : 1 018 Kbps
Writing library : VirtualDub build 23350/release

Video
Format : MPEG-4 Visual
Format settings, BVOP : Yes
Format settings, QPel : No
Format settings, GMC : No warppoints
Format settings, Matrix : Default
Muxing mode : Packed bitstream
Codec ID : DX50
Codec ID/Hint : DivX 5
Duration : 1h 34mn
Bit rate : 849 Kbps
Width : 640 pixels
Height : 360 pixels
Display aspect ratio : 16/9
Frame rate : 25.000 fps
Resolution : 24 bits
Colorimetry : 4:2:0
Scan type : Progressive
Bits/(Pixel*Frame) : 0.147
Stream size : 572 MiB (83%)
Writing library : DivX 5.2.1 Beta (UTC 2004-09-08)

Audio
Format : MPEG Audio
Format version : Version 1
Format profile : Layer 3
Codec ID : 55
Codec ID/Hint : MP3
Duration : 1h 34mn
Bit rate mode : Constant
Bit rate : 160 Kbps
Channel(s) : 2 channels
Sampling rate : 44.1 KHz
Resolution : 16 bits
Stream size : 108 MiB (16%)
Alignment : Split accross interleaves
Interleave, duration : 40 ms (1.00 video frame)
Interleave, preload duration : 500 ms
Writing library : LAME3.92
Encoding settings : CBRFound another copy of this movie here:
http://thepiratebay.org/torrent/3672466/

The differences are this version is PAL DVD transfer and uncropped, while the link above is an NTSC cropped transfer. By cropped I mean the matte has been removed. This is a larger image also, they both appear to have the same viewing data, just this one is larger in pixels.

Related Torrents

torrent name size files age seed leech

Sharing Widget


Download torrent
686.79 MB
seeders:0
leechers:0
Bring It On (2000)



To share this torrent use the code below and insert it into comments, status messages, forum posts or your signature.

Torrent: Bring It On (2000)

Trackers

tracker name
udp://tracker.publicbt.com:80/announce
udp://tracker.torrentbox.com:2710/announce
udp://tracker.istole.it:80/announce
udp://tracker.1337x.org:80/announce
udp://glotorrents.pw:6969/announce
udp://tracker.openbittorrent.com:80/announce
udp://tracker.coppersurfer.tk:6969/announce
udp://fr33domtracker.h33t.com:3310/announce
udp://tracker.opentrackr.org:1337/announce
µTorrent compatible trackers list

Locations

name
ThePirateBay
SumoTorrent
ExtraTorrent
Torrent hash: 88ba7458244480056c6ed115fcd29e1133349bef

Top Comments

2
anonymous
audio: 10video: 10
Great Thank you

All Comments

audio
9/10
video
9/10
please, leave only comments related to that torrent
Sign In

audio: 10video: 10
good quality and sound! thanks!
audio: 10video: 10
thanks :}
audio: 10video: 10
love this movie... great quality and torrent... well recommended... fast download thanks uploader..
audio: 9video: 9
thank you ♥
audio: 9video: 8
Good Quality AVI! Thanks!!
very good quality and audio thanks
audio: 9video: 9
Great quality
Show More All

User Opinions

lemanskee5267, EyesWeThink3149, Kefalonetis956, etro650, cloudnine622, martinowp565, theodoor348, shewomen96140, peppa27124, TheUnknown159 ... And 235 more
Sicarioo651, StuckUp137, F1madkiller8, Brighty837
Report a bug Open chat