BLADES OF GLORY HDrip Hindi Dubbed@Mastitorrents

seeders: 0
leechers: 0
updated:
Added by mastitorrents20.28K in Movies > Dubbed Movies
Torrent verified. Downloaded 10 times.

  • add Blades of Glory to bookmarks
  • Release date: 30 March 2007
  • Writers: Jeff Cox (screenplay), Craig Cox (screenplay), John Altschuler (screenplay), Dave Krinsky (screenplay), Craig Cox (story), Jeff Cox (story), Busy Philipps (story)
  • Language: Hindi
Summary:

In 2002, two rival Olympic ice skaters were stripped of their gold medals and permanently banned from men's single competition. Presently, however, they've found a loophole that will allow them to qualify as a pairs team.

Written by 5fingerdis65.67K
Available in versions: 1080p720pHDRiPDVDRip
BLADES OF GLORY HDrip Hindi Dubbed@Mastitorrents (Size: 319.36 MB)
  BLADES OF GLORY HDrip Hindi Dubbed by Arihant.mp4 309.22 MB
  sample.mp4 10.14 MB

Description

[font=Georgia]

Ripper Note :- Enjoy this Superb movie in good Quality

General

Complete name                    : BLADES OF GLORY HDrip Hindi Dubbed.MP4

Format                           : Matroska

File size                        : 309 MiB

Duration                         : 1h 29mn

Overall bit rate                 : 484 Kbps





Video

ID                               : 1

Format                           : AVC

Format/Info                      : Advanced Video Codec

Format profile                   : High@L5.1

Format settings, CABAC           : Yes

Format settings, ReFrames        : 8 frames

Muxing mode                      : Container profile=Unknown@5.1

Codec ID                         : V_MPEG4/ISO/AVC

Duration                         : 1h 29mn

Bit rate                         : 410 Kbps

Nominal bit rate                 : 404 Kbps

Width                            : 640 pixels

Height                           : 352 pixels

Display aspect ratio             : 16:9

Frame rate                       : 25.000 fps

Resolution                       : 8 bits

Colorimetry                      : 4:2:0

Scan type                        : Progressive

Bits/(Pixel*Frame)               : 0.073

Stream size                      : 262 MiB (85%)

Title                            : HD-VIDEO BY ARIHANT



Language                         : English



Audio

ID                               : 2

Format                           : MPEG Audio

Format version                   : Version 1

Format profile                   : Layer 3

Mode                             : Joint stereo

Format_Settings_ModeExtension    : MS Stereo

Codec ID                         : A_MPEG/L3

Codec ID/Hint                    : MP3

Duration                         : 1h 29mn

Bit rate mode                    : Constant

Bit rate                         : 64.0 Kbps

Channel(s)                       : 2 channels

Sampling rate                    : 48.0 KHz

Video delay                      : 1s 200ms

Stream size                      : 40.9 MiB (13%)

Title                            : HINDI AUDIO

Language                         : Hindi
[/font]




http://img441.imageshack.us/img441/6747/vlcsnap2010062022h18m44.png

http://img687.imageshack.us/img687/6013/vlcsnap2010062022h18m59.png

http://img266.imageshack.us/img266/9089/vlcsnap2010062022h19m13.png

http://img62.imageshack.us/img62/7639/vlcsnap2010062022h19m23.png

http://img38.imageshack.us/img38/9676/vlcsnap2010062022h20m02.png

http://img38.imageshack.us/img38/9365/vlcsnap2010062022h21m45.png

http://img18.imageshack.us/img18/9537/vlcsnap2010062022h22m38.png

http://img709.imageshack.us/img709/7148/vlcsnap2010062022h22m51.png

http://img180.imageshack.us/img180/413/vlcsnap2010062022h26m26.png

http://img64.imageshack.us/img64/570/vlcsnap2010062022h27m52.png

http://img824.imageshack.us/img824/2986/vlcsnap2010062022h29m06.png

Sharing Widget


Download torrent
319.36 MB
seeders:0
leechers:0
BLADES OF GLORY HDrip Hindi Dubbed@Mastitorrents



To share this torrent use the code below and insert it into comments, status messages, forum posts or your signature.

Torrent: BLADES OF GLORY HDrip Hindi Dubbed@Mastitorrents

Trackers

tracker name
http://pow7.com/announce
udp://tracker.publicbt.com:80/announce
udp://tracker.openbittorrent.com:80/announce
http://genesis.1337x.org:1337/announce
http://tracker.torrentbay.to:6969/announce
udp://tracker.istole.it:80/announce
http://11.rarbg.com/announce
http://10.rarbg.com/announce
http://www.h33t.com:3310/announce
udp://tracker.ccc.de:80/announce
µTorrent compatible trackers list

Locations

name
KickassTorrents
ThePirateBay
1337x
Limetorrents
ExtraTorrent
Torrent hash: 89bd0a0c6586ed007a0934feab73a79ba6ec952e

All Comments

audio
9/10
video
8/10
please, leave only comments related to that torrent
Sign In

audio: 8video: 6
Thx Uploader smile
audio: 10video: 10
Great!
audio: 10video: 8
NICE MOVIE HAVING A NORMAL PRINT
please seed it
audio: 10video: 10
good movie

User Opinions

Report a bug