Black Sheep [2006] Dvdrip - PRESTiGE

seeders: 0
leechers: 0
updated:
Added in Movies
Torrent verified. Downloaded 30 times.

Summary:

An experiment in genetic engineering turns harmless sheep into blood-thirsty killers that terrorize a sprawling New Zealand farm.

Written by KuyaTebs2995
Available in versions: 720pBlu-RayHDRiPDVDRip
Black Sheep [2006] Dvdrip - PRESTiGE (Size: 709.97 MB)
  Black Sheep Dvdrip - PRESTiGE - Sample.avi 9.31 MB
  Black Sheep [2006] Dvdrip - PRESTiGE.avi 700.65 MB
  Black Sheep [2006] Dvdrip - PRESTiGE.nfo 2.64 KB
  Read this before playing this Video.txt 192 bytes
  torrent downloaded from www.scenetime.com.txt 192 bytes

Description

,
. http://www.scenetime.com/signup.php ---> Hottest scene tracker on the net !!!

Join Now http://www.scenetime.com/signup.php

seed back for speed






...................................NFO:.................................................[align=center]http://www.pix2links.com/image/hVXbZ.jpg

image

Complete name : Black Sheep [2006] Dvdrip - PRESTiGE.avi
Format : AVI
Format/Info : Audio Video Interleave
File size : 701 MiB
Duration : 1h 26mn
Overall bit rate : 1 127 Kbps
IMDB: http://www.imdb.com/title/tt0779982/
Encoder:Twisted
Source: Black Sheep Unrated - PRESTiGE

image

ID : 0
Format : MPEG-4 Visual
Format profile : Advanced Simple@L5
Format settings, BVOP : 2
Format settings, QPel : No
Format settings, GMC : No warppoints
Format settings, Matrix : Default (H.263)
Muxing mode : Packed bitstream
Codec ID : XVID
Codec ID/Hint : XviD
Duration : 1h 26mn
Bit rate : 989 Kbps
Width : 720 pixels
Height : 304 pixels
Display aspect ratio : 2.35:1
Frame rate : 23.976 fps
Color space : YUV
Chroma subsampling : 4:2:0
Bit depth : 8 bits
Scan type : Progressive
Compression mode : Lossy
Bits/(Pixel*Frame) : 0.189
Stream size : 615 MiB (88%)
Writing library : XviD 63


image

ID : 1
Format : MPEG Audio
Format version : Version 1
Format profile : Layer 3
Mode : Joint stereo
Mode extension : MS Stereo
Codec ID : 55
Codec ID/Hint : MP3
Duration : 1h 26mn
Bit rate mode : Constant
Bit rate : 128 Kbps
Channel(s) : 2 channels
Sampling rate : 44.1 KHz
Compression mode : Lossy
Delay relative to video : 26ms
Stream size : 79.6 MiB (11%)
Alignment : Split accross interleaves
Interleave, duration : 42 ms (1.00 video frame)
Interleave, preload duration : 500 ms


image

http://www.pix2links.com/image/xEZ5M.png
http://www.pix2links.com/image/j5MG.png
http://www.pix2links.com/image/ucZYU.png
http://www.pix2links.com/image/YUchj.png


image

WE DONT RELEASE EVERYTHING TO OTHERS SITES YOU WANT MORE OF OUR STUFF COME FIND US AT .......
WE ARE LOOKING FOR SUPPLIERS BLURAY CAM R5 PRE RETAIL DVD GOT SOMETHING WE MIGHT LIKE WHEN YOU FIND US TELL US.......


Greets going out to

| Bigguy | DiLLoN | Thorn | Flawl3ss | Imagine | CTFX | BMB | akosipalos | HiTM4N | PA4U2C |


image[/align]

Sharing Widget


Download torrent
709.97 MB
seeders:0
leechers:0
Black Sheep [2006] Dvdrip - PRESTiGE



To share this torrent use the code below and insert it into comments, status messages, forum posts or your signature.

Torrent: Black Sheep [2006] Dvdrip - PRESTiGE

Trackers

tracker name
udp://tracker.openbittorrent.com:80/announce
udp://tracker.publicbt.com:80/announce
http://tracker.openbittorrent.com/announce
http://tracker.publicbt.com/announce
ĀµTorrent compatible trackers list

Locations

name
ThePirateBay
Torrent hash: 07cb3489d6fe31a39c4769bf99b64a7ce5a60535

Top Comments

2
UGotMail4047
audio: 9video: 9
Awesome! Thanks
2
dallass66331
audio: 9video: 9
awesome thanks
2
suk1114714
audio: 10video: 10
Nice Movie, Bhaaaaaaaaaaaahhhhaaa , Thanks
2
kevinbors2736
Nice video and audio. Gotta' love a movie with crazy, mutating sheep. Funny stuff.

All Comments

audio
9/10
video
9/10
please, leave only comments related to that torrent
Sign In

User Opinions

wizworx8963, rayron8570, Naskal6495, chaseseith4644, WhiteFrog4268, CripesDM1460, rohit_mohta380, devilllangelll243, DjamelGsm87, darkdaniel57 ... And 105 more
JustNtoxic8td4310, alpha_131390, shdwocnnr1089, kohorca116
Report a bug