Bishh (2009) - Bengali Movie - DVD Rip - (Adult) - A Film By Q

seeders: 0
leechers: 0
updated:
Added by Kamalesh8296 in Movies > Asian
Torrent verified. Downloaded 264 times.

Cast: Mallika Mazumdar, Rituparna Sen and others
Summary:

The film is a one-night tale of three college friends, Bee, Soumi and Anushka. Ditched by men, the trio seems to have had enough of men's use-and-throw tactics. It's now their turn to be equally spiteful and do to men what they've done to them. And all that is supposed to come for a price!
"Bishh" is a smart attempt at thinking beyond the obvious Tollywood plots. Of course, limitations remain in terms of budget and a not-too-strong script...,

Written by MAS23.75K
Bishh (2009) - Bengali Movie - DVD Rip - (Adult) - A Film By Q (Size: 702.62 MB)
  Bishh - 1 CD Rip.avi 700.33 MB
  Bishh - 1 CD Rip - Preview.jpg 1.46 MB
  Bishh - 1 CD Rip - Screen.jpg 754.59 KB
  Bishh - 1 CD Rip.jpg 95.8 KB

Description

http://img210.imageshack.us/img210/9291/vlcsnap2012032720h05m57.jpg
http://img827.imageshack.us/img827/136/vlcsnap2012032720h06m25.jpg
http://img407.imageshack.us/img407/8492/vlcsnap2012032720h11m09.jpg
http://img171.imageshack.us/img171/9241/vlcsnap2012032720h09m04.jpg
http://img209.imageshack.us/img209/4746/vlcsnap2012032720h09m46.jpg
http://img220.imageshack.us/img220/2443/vlcsnap2012032720h08m34.jpg
http://img814.imageshack.us/img814/8281/vlcsnap2012032720h09m37.jpg
http://img827.imageshack.us/img827/136/vlcsnap2012032720h06m25.jpg
http://img534.imageshack.us/img534/4964/vlcsnap2012032720h09m22.jpg
http://img220.imageshack.us/img220/1926/vlcsnap2012032720h07m55.jpg
http://img210.imageshack.us/img210/733/vlcsnap2012032720h09m59.jpg
http://img577.imageshack.us/img577/9672/vlcsnap2012032720h07m57.jpg
http://img692.imageshack.us/img692/8427/vlcsnap2012032720h10m20.jpg

General

Format : AVI
Format/Info : Audio Video Interleave
File size : 700 MiB
Duration : 1h 22mn
Overall bit rate : 1 185 Kbps
Writing application : VirtualDubMod 1.5.4.1 (build 2178/release)
Writing library : VirtualDubMod build 2178/release

Video

ID : 0
Format : MPEG-4 Visual
Format profile : Advanced Simple@L5
Format settings, BVOP : 1
Format settings, QPel : No
Format settings, GMC : No warppoints
Format settings, Matrix : Custom
Codec ID : XVID
Codec ID/Hint : XviD
Duration : 1h 22mn
Bit rate : 1 069 Kbps
Width : 720 pixels
Height : 448 pixels
Display aspect ratio : 1.607
Frame rate : 25.000 fps
Color space : YUV
Chroma subsampling : 4:2:0
Bit depth : 8 bits
Scan type : Progressive
Compression mode : Lossy
Bits/(Pixel*Frame) : 0.133
Stream size : 631 MiB (90%)
Writing library : XviD 1.2.1 (UTC 2008-12-04)

Audio

ID : 1
Format : MPEG Audio
Format version : Version 1
Format profile : Layer 3
Mode : Joint stereo
Mode extension : MS Stereo
Codec ID : 55
Codec ID/Hint : MP3
Duration : 1h 22mn
Bit rate mode : Variable
Bit rate : 104 Kbps
Nominal bit rate : 128 Kbps
Channel(s) : 2 channels
Sampling rate : 48.0 KHz
Compression mode : Lossy
Stream size : 61.2 MiB (9%)
Alignment : Aligned on interleaves
Interleave, duration : 24 ms (0.60 video frame)
Interleave, preload duration : 270 ms
Writing library : LAME3.98r
Encoding settings : -m j -V 4 -q 2 -lowpass 17 --abr 128

Sharing Widget


Download torrent
702.62 MB
seeders:0
leechers:0
Bishh (2009) - Bengali Movie - DVD Rip - (Adult) - A Film By Q



To share this torrent use the code below and insert it into comments, status messages, forum posts or your signature.

Torrent: Bishh (2009) - Bengali Movie... Rip - (Adult) - A Film By Q

Trackers

tracker name
udp://open.demonii.com:1337/announce
udp://tracker.openbittorrent.com:80/announce
udp://tracker.istole.it:80/announce
udp://tracker.publicbt.com:80/announce
http://genesis.1337x.org:1337/announce
http://tracker.torrentbay.to:6969/announce
http://exodus.1337x.org/announce
http://10.rarbg.com/announce
http://nemesis.1337x.org/announce
udp://tracker.ccc.de:80/announce
ĀµTorrent compatible trackers list

Locations

name
KickassTorrents
Torrent hash: A75CE3F07CFE6D4B04F351CCF8372CB283590311

All Comments

audio
7/10
video
7/10
please, leave only comments related to that torrent
Sign In

plz upload 'Par bona Ami charte toke'! dude i was waiting for this film !
audio: 8video: 8
Thanks
Is it Uncensored ?
Does that Movies contains any Artistically Erotic Scene like,, COsmic sex. Divine sex??
audio: 3video: 3
good movie..bad quality.
audio: 8video: 8
Nice Share biggrin
Show More All

User Opinions

shuknopata4623, jivan284036, BrutalBubu1184, Gulkan1031, AxOpLiX985, Deap944, stilleyes366, anupam4ever214, bappu192, jh57473822 ... And 74 more
AgentHD3680, decent03332417, solid.gold2243, ghoul_tokyo1564, arpanari903, KumarAnath606, abose06487, rana.pathak344, pranaydipto288, innocent.styl4 ... And 7 more
Report a bug