Bikinin Spring Break 2012 DVDRip Ac3 SLRG

seeders: 0
leechers: 0
updated: 1 week ago
Added on Jul 15, 2012 by utterjoy5229 in Movies
Torrent verified. Downloaded 0 times.

Summary:
A group of coeds from a small conservative college break out of their shells when their marching band bus breaks down in Ft. Lauderdale during Spring Break.
Written by Pahly157.89K
report summary
Available in versions: HDRiPDVDDVDRip
Bikinin Spring Break 2012 DVDRip Ac3 SLRG (Size: 1.15 GB)
  Bikinin.Spring.Break.2012.DVDRip.Ac3-SLRG.avi 1.13 GB
  Bikinin.Spring.Break.2012.DVDRip.Ac3-SLRG.nfo 8.31 KB
  Bikinin.Spring.Break.2012.DVDRip.Ac3-SLRG.Sample.avi 11.38 MB

Description

image
IMDB:
http://www.imdb.com/title/tt2304517/
Release Info:
Mediainfo
General
Complete name: Bikini.Spring.Break.avi
Format: AVI
Format/Info: Audio Video Interleave
Format profile: OpenDML
File size: 1.13 GiB
Duration: 1h 27mn
Overall bit rate: 1 855 Kbps
Movie name: DVD_VOLUME.Title3.DVDRip
Writing application: Lavf53.21.0
Original source form/Name: DVD_VOLUME
Video
ID: 0
Format: MPEG-4 Visual
Format profile: Advanced Simple@L5
Format settings, BVOP: 2
Format settings, QPel: No
Format settings, GMC: No warppoints
Format settings, Matrix: Default (H.263)
Muxing mode: Packed bitstream
Codec ID: XVID
Codec ID/Hint: XviD
Duration: 1h 27mn
Bit rate: 1 394 Kbps
Width: 720 pixels
Height: 404 pixels
Display aspect ratio: 16:9
Frame rate: 23.976 fps
Color space: YUV
Chroma subsampling: 4:2:0
Bit depth: 8 bits
Scan type: Progressive
Compression mode: Lossy
Bits/(Pixel*Frame): 0.200
Stream size: 874 MiB (75%)
Writing library: XviD 1.2.1 (UTC 2008-12-04)
Audio
ID: 1
Format: AC-3
Format/Info: Audio Coding 3
Mode extension: CM (complete main)
Format settings, Endianness: Big
Codec ID: 2000
Duration: 1h 27mn
Bit rate mode: Constant
Bit rate: 448 Kbps
Channel(s): 6 channels
Channel positions: Front: L C R, Side: L R, LFE
Sampling rate: 48.0 KHz
Bit depth: 16 bits
Compression mode: Lossy
Stream size: 280 MiB (24%)
Alignment: Aligned on interleaves
Interleave, duration: 32 ms (0.77 video frame)
Source: DVDR-FEATURE
image
image

Sharing Widget


Download torrent
1.15 GB
seeders:0
leechers:0
Bikinin Spring Break 2012 DVDRip Ac3 SLRG

Trackers

tracker name Status
http://tracker.istole.it/announce
outdated
udp://tracker.openbittorrent.com:80/announce
outdated
udp://tracker.publicbt.com:80/announce
outdated
udp://tracker.1337x.org:80/announce
outdated
udp://tracker.istole.it:80/announce
outdated
http://exodus.desync.com:6969/announce
blocked
http://tracker.publicbt.com/announce
deleted
udp://fr33domtracker.h33t.com:3310/announce
deleted
http://torrentday.ru:6969/4daba33a2274db432145dd8667413b16/announce
active
http://torrentday.me:2710/4daba33a2274db432145dd8667413b16/announce
active
µTorrent compatible trackers list

Locations

name
KickassTorrents
Torrent hash: 7850D46CDAC32E3446536C4E02D0661242379C83

All Comments

audio
0/10
video
0/10
please, leave only comments related to that torrent
or sign-in


User Opinions

Report a bug