Advertising (remove)

Big Wet Asses - Ricki White and Luscious Lopez (XXX)(iPod,PSP,Zune)

seeders: 0
leechers: 0
updated:
Added by punter21997 in XXX > Video
Torrent verified by onionmahn6502, 4 years ago. Downloaded 97 times.

Big Wet Asses - Ricki White and Luscious Lopez (XXX)(iPod,PSP,Zune) (Size: 84.62 MB)
  Big Wet Asses - Ricki White&Luscious Lopez.m4v 84.35 MB
  screen.jpg 277.35 KB
Advertising (remove)

Description

http://image.bayimg.com/haehiaadd.jpg
Screenshot
Video
ID : 1
Format : AVC
Format/Info : Advanced Video Codec
Format profile : Baseline@L1.3
Format settings, CABAC : No
Format settings, ReFrames : 2 frames
Codec ID : avc1
Codec ID/Info : Advanced Video Coding
Duration : 28mn 13s
Bit rate mode : Variable
Bit rate : 350 Kbps
Width : 368 pixels
Height : 272 pixels
Display aspect ratio : 4:3
Frame rate mode : Variable
Frame rate : 23.976 fps
Minimum frame rate : 23.974 fps
Maximum frame rate : 23.981 fps
Color space : YUV
Chroma subsampling : 4:2:0
Bit depth : 8 bits
Scan type : Progressive
Bits/(Pixel*Frame) : 0.146
Stream size : 70.7 MiB (84%)
Writing library : x264 core 112
Audio
ID : 2
Format : AAC
Format/Info : Advanced Audio Codec
Format profile : LC
Codec ID : 40
Duration : 28mn 13s
Bit rate mode : Variable
Bit rate : 64.1 Kbps
Maximum bit rate : 101 Kbps
Channel(s) : 2 channels
Channel positions : Front: L R
Sampling rate : 48.0 KHz
Compression mode : Lossy
Stream size : 13.0 MiB (15%)
Language : English

Related Torrents

torrent name size files age seed leech

Sharing Widget


Download torrent
84.62 MB
seeders:0
leechers:0
Big Wet Asses - Ricki White and Luscious Lopez (XXX)(iPod,PSP,Zune)



To share this torrent use the code below and insert it into comments, status messages, forum posts or your signature.

Torrent: Big Wet Asses - Ricki White ...s Lopez (XXX)(iPod,PSP,Zune)

Trackers

tracker name
udp://tracker.openbittorrent.com:80/announce
udp://tracker.publicbt.com:80/announce
http://tracker.openbittorrent.com/announce
http://exodus.1337x.org/announce
http://tracker.publicbt.com/announce
µTorrent compatible trackers list

Locations

name
KickassTorrents
ThePirateBay
1337x
Torrent hash: f642c87db3b8aa1ac8dea2fb3cc5706b4bd568ed

All Comments

audio
0/10
video
0/10
please, leave only comments related to that torrent
Sign In

User Opinions

capitolfi15.38K, 3131315038, mn-x4277, Just4TheX3082, Cyenthies1817, nmXhc919, comakaz385, ALLHA41, pompanoslim34, city_guy22210 ... And 6 more
Rustam71284
Report a bug