BattleShip 2012 REPACK TS XViD AC3-ADTRG

seeders: 0
leechers: 0
updated:
Added by UsaBit220.34K in Movies
Torrent verified. Downloaded 10 times.

Summary:

A fleet of ships is forced to do battle with an armada of unknown origins in order to discover and thwart their destructive goals.

Written by thePiratePimp72.81K
BattleShip 2012 REPACK TS XViD AC3-ADTRG (Size: 1.53 GB)
  BattleShip.2012.REPACK.TS.XViD.AC3-ADTRG.avi 1.52 GB
  BattleShip.2012.REPACK.TS.XViD.AC3-ADTRG.nfo 2.52 KB
  sample.avi 12.26 MB
  www.UsaBit.com.txt 1 bytes

Description

http://i37.fastpic.ru/big/20...8a07e74a7bf95f831656a411.jpg

BattleShip.2012.REPACK.TS.XViD.AC3-ADTRG

A fleet of ships is forced to do battle with an armada of unknown origins in order to discover and thwart their destructive goals.

http://www.imdb.com/title/tt1440129/

Source - 720p Cam SMY Thanks
Source - missing scenes - Twix Thanks
Source - LiNe Audio - Dragon Exclusive Thanks, awesome work bro

Complete name : BattleShip.2012.REPACK.TS.XViD.AC3-ADTRG.avi
Format : AVI
Format/Info : Audio Video Interleave
File size : 1.52 GiB
Duration : 2h 0mn
Overall bit rate : 1 805 Kbps
Writing library : VirtualDub build 34703/release

Video
ID : 0
Format : MPEG-4 Visual
Codec ID : XVID
Bit rate : 1 604 Kbps
Width : 720 pixels
Height : 320 pixels
Display aspect ratio : 2.25:1
Frame rate : 30.000 fps
Stream size : 1.35 GiB (89%)

Audio
ID : 1
Format : AC-3
Bit rate : 192 Kbps
Channel(s) : 2 channels
Channel positions : Front: L R
Sampling rate : 48.0 KHz
Stream size : 163 MiB (11%)


Encoder - LiMeY
K, i dropped the ball on first one, played fine on laptop, not so fine on WDTV.
removed long black screen at beginning , a few dupe frames and synced for your viewing pleasure.
might still be a few 1 second glitches on joins but at least 99% synced so enjoy.


Good things come in small packages, So feel the wrath of my compression

http://i2.lulzimg.com/20bfc5aca6.png

Related Torrents

torrent name size files age seed leech

Sharing Widget


Download torrent
1.53 GB
seeders:0
leechers:0
BattleShip 2012 REPACK TS XViD AC3-ADTRG



To share this torrent use the code below and insert it into comments, status messages, forum posts or your signature.

Torrent: BattleShip 2012 REPACK TS XViD AC3-ADTRG

Trackers

tracker name
udp://tracker.openbittorrent.com:80/announce
udp://tracker.publicbt.com:80/announce
udp://tracker.istole.it:80/announce
udp://tracker.1337x.org:80/announce
http://exodus.desync.com:6969/announce
udp://fr33domtracker.h33t.com:3310/announce
ĀµTorrent compatible trackers list

Locations

name
KickassTorrents
Torrent hash: 703DDCE00A60BC3D7ECF6CE8EBBD373FC50DC200

All Comments

audio
7/10
video
7/10
please, leave only comments related to that torrent
Sign In

User Opinions

rayron8955, DjKimoni4120, daytonadave963780, linerider692416, TheThirdMark1468, PsychoSideshow529, rft360493, wthit27370, ddsi05138, c-bear135 ... And 216 more
jvinkle1754, private376201449, cyrusji1182, SkeeLo65652, viperlayer252, cornelivs76, mrtomtom57, edz22, rpc8, brieasty0 ... And 2 more
Report a bug Open chat