BattleShip 2012 REPACK TS XViD AC3-ADTRG

seeders: 0
leechers: 0
Added on May 25, 2012 by UsaBit201.15K in Movies
Torrent verified. Downloaded 0 times.

Summary:
A fleet of ships is forced to do battle with an armada of unknown origins in order to discover and thwart their destructive goals.
Written by thePiratePimp61.09K
report summary
BattleShip 2012 REPACK TS XViD AC3-ADTRG (Size: 1.53 GB)
  BattleShip.2012.REPACK.TS.XViD.AC3-ADTRG.avi 1.52 GB
  BattleShip.2012.REPACK.TS.XViD.AC3-ADTRG.nfo 2.52 KB
  sample.avi 12.26 MB
  www.UsaBit.com.txt 1 bytes

Description

image

BattleShip.2012.REPACK.TS.XViD.AC3-ADTRG

A fleet of ships is forced to do battle with an armada of unknown origins in order to discover and thwart their destructive goals.

http://www.imdb.com/title/tt1440129/

Source - 720p Cam SMY Thanks
Source - missing scenes - Twix Thanks
Source - LiNe Audio - Dragon Exclusive Thanks, awesome work bro

Complete name : BattleShip.2012.REPACK.TS.XViD.AC3-ADTRG.avi
Format : AVI
Format/Info : Audio Video Interleave
File size : 1.52 GiB
Duration : 2h 0mn
Overall bit rate : 1 805 Kbps
Writing library : VirtualDub build 34703/release

Video
ID : 0
Format : MPEG-4 Visual
Codec ID : XVID
Bit rate : 1 604 Kbps
Width : 720 pixels
Height : 320 pixels
Display aspect ratio : 2.25:1
Frame rate : 30.000 fps
Stream size : 1.35 GiB (89%)

Audio
ID : 1
Format : AC-3
Bit rate : 192 Kbps
Channel(s) : 2 channels
Channel positions : Front: L R
Sampling rate : 48.0 KHz
Stream size : 163 MiB (11%)


Encoder - LiMeY
K, i dropped the ball on first one, played fine on laptop, not so fine on WDTV.
removed long black screen at beginning , a few dupe frames and synced for your viewing pleasure.
might still be a few 1 second glitches on joins but at least 99% synced so enjoy.


Good things come in small packages, So feel the wrath of my compression

image

Related Torrents

torrent name size files age seed leech

Sharing Widget


Download torrent
1.53 GB
seeders:0
leechers:0
BattleShip 2012 REPACK TS XViD AC3-ADTRG

Trackers

tracker name Status checked seeders leechers downloads
udp://tracker.openbittorrent.com:80/announce
outdated 09 Feb 2013 - - -
udp://tracker.publicbt.com:80/announce
outdated 09 Feb 2013 - - -
udp://tracker.istole.it:80/announce
outdated 09 Feb 2013 - - -
udp://tracker.1337x.org:80/announce
outdated 09 Feb 2013 - - -
http://exodus.desync.com:6969/announce
blocked 09 Feb 2013 - - -
udp://fr33domtracker.h33t.com:3310/announce
deleted 09 Feb 2013 - - -
ĀµTorrent compatible trackers list

Locations

name
KickassTorrents
Torrent hash: 703DDCE00A60BC3D7ECF6CE8EBBD373FC50DC200

All Comments

audio
7/10
video
7/10
please, leave only comments related to that torrent
or sign-in
0
RawB20692 • 09 March 2015, 08:42
torrent downloaded
Show comment
good upload
0
HopenDarkness74.61K • 08 October 2013, 20:01
torrent downloaded
Show comment
audio: 9video: 8
0
steve1969727 • 31 January 2013, 18:18
torrent downloaded
Show comment
Thanks
0
paulblack0 • 24 October 2012, 00:40
torrent downloaded
Show comment
audio: 1video: 7
poor sound
0
anonymous • 19 October 2012, 10:25 Show comment
audio: 6video: 2
cam
0
FShadow19984905 • 17 October 2012, 12:17 Show comment
audio: 7video: 7
0
BoabC25 • 08 October 2012, 11:54
torrent downloaded
Show comment
audio: 9video: 9
Great Stuff !
0
anonymous • 19 January 2013, 08:58 Show comment
Battleship (2012)

0
BigAlUk105 • 13 August 2012, 23:34
torrent downloaded
Show comment
audio: 9video: 9
Show More All

User Opinions

rayron5878, DjKimoni3980, daytonadave963528, linerider692407, TheThirdMark1223, PsychoSideshow520, rft360493, wthit27368, ddsi05138, c-bear135 ... And 216 more
private376201448, cyrusji1097, jvinkle1093, SkeeLo65652, viperlayer181, cornelivs76, mrtomtom57, edz22, rpc8, brieasty0 ... And 2 more
Report a bug