Bad Ass 2012 VODRiP AC3-2 0 XviD-SiC

seeders: 6
leechers: 1
updated:
Added by legend65.97K in Movies
Torrent verified. Downloaded 11 times.

Summary:

A Vietnam veteran who becomes a local hero after saving a man from attackers on a city bus decides to take action when his best friend is murdered and the police show little interest in solving the crime.

Written by MoonChild19.8K
Available in versions: 1080p720pHDRiPDVDDVDRip
Bad Ass 2012 VODRiP AC3-2 0 XviD-SiC (Size: 1.35 GB)
  Bad.Ass.2012.VODRiP.AC3-2.0.XviD-SiC.nfo 7.78 KB
  Bad.Ass.2012.VODRiP.AC3-2.0.XviD-SiC.avi 1.33 GB
  Torrent downloaded from extratorrent.com.txt 353 bytes
  SAMPLE

Description



image
IMDB Link:
http://www.imdb.com/title/tt1928330/ [rate:no votes] unknown votes
Description:
A Vietnam veteran who becomes a local hero after saving a man from attackers on a city bus decides to take action when his best friend is murdered and the police show little interest in solving the crime.
MediaInfo:
General
Complete name : Bad.Ass.2012.VODRiP.AC3-2.0.XviD-SiC.avi
Format : AVI
Format/Info : Audio Video Interleave
File size : 1.33 GiB
Duration : 1h 30mn
Overall bit rate : 2 118 Kbps
Video
ID : 0
Format : MPEG-4 Visual
Format profile : Advanced Simple@L5
Format settings, BVOP : 2
Format settings, QPel : No
Format settings, GMC : No warppoints
Format settings, Matrix : Default (H.263)
Muxing mode : Packed bitstream
Codec ID : XVID
Codec ID/Hint : XviD
Duration : 1h 30mn
Bit rate : 1 854 Kbps
Width : 720 pixels
Height : 400 pixels
Display aspect ratio : 16:9
Frame rate : 23.976 fps
Color space : YUV
Chroma subsampling : 4:2:0
Bit depth : 8 bits
Scan type : Progressive
Compression mode : Lossy
Bits/(Pixel*Frame) : 0.269
Stream size : 1.17 GiB (88%)
Writing library : XviD 1.1.2 (UTC 2006-11-01)
Audio
ID : 1
Format : AC-3
Format/Info : Audio Coding 3
Mode extension : CM (complete main)
Codec ID : 2000
Duration : 1h 30mn
Bit rate mode : Constant
Bit rate : 256 Kbps
Channel(s) : 2 channels
Channel positions : Front: L R
Sampling rate : 48.0 KHz
Bit depth : 16 bits
Compression mode : Lossy
Stream size : 165 MiB (12%)
Alignment : Aligned on interleaves
Interleave, duration : 64 ms (1.53 video frames)
Interleave, preload duration : 192 ms
Title : badass
image
image
image
image

Related Torrents

torrent name size files age seed leech

Sharing Widget


Download torrent
1.35 GB
seeders:6
leechers:1
Bad Ass 2012 VODRiP AC3-2 0 XviD-SiC



To share this torrent use the code below and insert it into comments, status messages, forum posts or your signature.

Torrent: Bad Ass 2012 VODRiP AC3-2 0 XviD-SiC

Trackers

tracker name
http://secure.pow7.com/announce
udp://tracker.publicbt.com:80/announce
udp://tracker.openbittorrent.com:80/announce
udp://tracker.istole.it:80/announce
udp://tracker.1337x.org:80/announce
http://exodus.desync.com:6969/announce
http://fr33dom.h33t.com:3310/announce
udp://tracker.novalayer.org:6969/announce
ĀµTorrent compatible trackers list

Locations

name
KickassTorrents
ThePirateBay
ExtraTorrent
Torrent hash: 1E728501E4E7757A1B4E4AAC660944F25AC763C8

Top Comments

24
zombicidal1895
audio: 10video: 10
great rip legend
good to see a movie without false advertising...he IS a badass
a10 v10
this film is seriously sick or very very good (if you aint with the street lingo)
lol
12
phcon9213
audio: 8video: 8
looks good thanks for the share
3
nik26345
audio: 8video: 8
not as good as expected from a file of this size.....but quiet watchable....thanks uploader
2
Waqurtx5150
audio: 9video: 8
thanks

All Comments

audio
8/10
video
8/10
please, leave only comments related to that torrent
Sign In

audio: 9video: 9
Thanks legend65.97K for uploading
audio: 10video: 10
cheers!
audio: 1video: 1
it didn`t open and installed a virus in my computer. now i can`t run any movies
audio: 1video: 1
so fuck off retard,don't give a:1 v:1 because your computer sucks.fucking moron
thats from all the porn ur watching budda ..

audio: 9video: 8
you can watch this film once but not agian
audio: 9video: 9
shit film, but good copy. Thanks uploader.
audio: 9video: 9
Good Rip and Good Movie Thanks Up-loader
Good Picture quality and great sound but a terrible movie, but thank you so much your efforts.
Show More All

User Opinions

Negenius5115, mosthated24912538, sommelier1546, chatty461000, jkarp1729, namwen724, Yakuza_bosS277, steveo77276, buggs53246, sune43 ... And 983 more
electsub3681, Sange3115, Queen132178, spun11809, statueofmike776, morgstar674, brandonfromohio322, prasurocks168, mercury7587, outdoorstraveler11 ... And 45 more
Report a bug