Baciami Ancora 2010 iTALiAN PAL DVDRip-BoBoGinGi

seeders: 0
leechers: 0
updated:
Added in Movies
Torrent verified. Downloaded 19 times.

Summary:

A look at the lives of Carlo, Giulia, and their friends some 10 years after the events of L'Ultimo bacio.

Written by Man2016noW57.43K
Available in versions: DVDRip
Baciami Ancora 2010 iTALiAN PAL DVDRip-BoBoGinGi (Size: 1.37 GB)
  Baciami.Ancora.2010.iTALiAN.PAL.DVDRip-BoBoGinGi.avi 1.37 GB

Description


image



Titolo originale: Baciami ancora

Nazione: Italia

Anno: 2010

Genere: Drammatico

Durata: 138

Regia: Gabriele Muccino

Produzione:



General

Complete name : /Baciami.Ancora.2010.iTALiAN.PAL.DVDRip-BoBoGinGi.avi

Format : AVI

Format/Info : Audio Video Interleave

File size : 1.37 GiB

Duration : 2h 18mn

Overall bit rate : 1 422 Kbps

Movie name : BACIAMI_ANCORA.Title1.DVDRip

Writing application : Lavf52.33.0

Original source form/Name : BACIAMI_ANCORA



Video

ID : 0

Format : MPEG-4 Visual

Format profile : Simple@L3

Format settings, BVOP : No

Format settings, QPel : No

Format settings, GMC : No warppoints

Format settings, Matrix : Default (H.263)

Codec ID : XVID

Codec ID/Hint : XviD

Duration : 2h 18mn

Bit rate : 1 217 Kbps

Width : 640 pixels

Height : 272 pixels

Display aspect ratio : 2.35:1

Frame rate : 25.000 fps

Resolution : 24 bits

Colorimetry : 4:2:0

Scan type : Progressive

Bits/(Pixel*Frame) : 0.280

Stream size : 1.18 GiB (86%)

Writing library : XviD 1.2.1 (UTC 2008-12-04)



Audio

ID : 1

Format : MPEG Audio

Format version : Version 1

Format profile : Layer 3

Format_Settings_Mode : Joint stereo

Codec ID : 55

Codec ID/Hint : MP3

Duration : 2h 18mn

Bit rate mode : Constant

Bit rate : 192 Kbps

Channel(s) : 2 channels

Sampling rate : 48.0 KHz

Resolution : 16 bits

Stream size : 190 MiB (14%)

Alignment : Aligned on interleaves

Interleave, duration : 24 ms (0.60 video frame)




Related Torrents

torrent name size files age seed leech

Sharing Widget


Download torrent
1.37 GB
seeders:0
leechers:0
Baciami Ancora 2010 iTALiAN PAL DVDRip-BoBoGinGi



To share this torrent use the code below and insert it into comments, status messages, forum posts or your signature.

Torrent: Baciami Ancora 2010 iTALiAN PAL DVDRip-BoBoGinGi

Trackers

tracker name
udp://tracker.publicbt.com:80/announce
udp://tracker.openbittorrent.com:80/announce
http://tracker.token.ro/announce
http://tracker.openbittorrent.com/announce
http://fr33dom.h33t.com:3310/announce
http://tracker.publicbt.com/announce
µTorrent compatible trackers list

Locations

name
1337x
ExtraTorrent
Torrent hash: b9ebb43a1d8af045561b35c1c5a58cb377113f4c

All Comments

audio
8/10
video
9/10
please, leave only comments related to that torrent
Sign In

audio: 9video: 9
ottimo, bel film! grazie!
audio: 9video: 9
Grazie mille per l'upload! ;-)
Film completo (titoli di coda inclusi).
Audio, video e tempi di download perfetti.
audio: 10video: 10
Non ho guardato ancora ma dal sample mi sembra buono.
Si, confermo, è ottimo.

audio: 10video: 10
Download perfetto, film assurdo ma col sospetto che i 40enni siano davvero così squinternati...
audio: 8video: 8
buono
audio: 10video: 10
Ottimo!
Show More All

User Opinions

Report a bug Open chat