Baadshah (2013) - Telugu - DVDSCR - 1CD - APPLE - Team TKT

seeders: 0
leechers: 0
updated:
Added by aravind0171430 in Movies > Asian
Torrent verified. Downloaded 10 times.

Summary:

Rama Rao (Jr. NTR) is the son of Ranjan (Mukesh Rishi) who works as an assistant to Mafia Don Saadu Bhai (Kelly Dorji) is an IPS Aspirant. However, he is rejected from police work due to his fathers connections to the criminal underworld. Meanwhile his brother Siddu (Siddarth Narayan) gets killed in a bomb blast planned by Saadu Bhai. Rama Rao seeking revenge, reunites with his father and becomes Baadshah on the advice of a police officer (Sayaji Shinde). He soon takes Macau from Saadu Bhai. Saadu Bhai, peeved by Rama Rao's aggression and guts, joins forces with his rivals and IPS officers, such as Aadi (Navdeep) and falsely accuses Baadshah of murdering a police officer. Baadshah discovers that Saadu Bhai is planning a series of bombings in India and that Aadi is a culprit. and going to marry Janaki (Kajal Aggarwal). So he decides to save India and also completes Operation Baadshah.

Written by SuiCyco58.48K
Available in versions: 1080p720pBlu-RayDVDRip
Baadshah (2013) - Telugu - DVDSCR - 1CD - APPLE - Team TKT (Size: 651.83 MB)
  WwW.Tktorrents.net.txt 308 bytes
  Baadshah (2013) - Telugu - DVDSCR - 1CD - APPLE - Team TKT.mp4 651.83 MB

Description



image




General
Complete name : Baadshah (2013) - Telugu - DVDSCR - 1CD - APPLE - Team TKT.mp4
Format : MPEG-4
Format profile : Base Media / Version 2
Codec ID : mp42
File size : 652 MiB
Duration : 2h 33mn
Overall bit rate mode : Variable
Overall bit rate : 596 Kbps
Encoded date : UTC 2013-04-07 11:32:13
Tagged date : UTC 2013-04-07 12:03:33
Writing application : HandBrake 0.9.8 2012071700

Video
ID : 1
Format : AVC
Format/Info : Advanced Video Codec
Format profile : Main@L2.1
Format settings, CABAC : Yes
Format settings, ReFrames : 4 frames
Codec ID : avc1
Codec ID/Info : Advanced Video Coding
Duration : 2h 33mn
Bit rate mode : Variable
Bit rate : 431 Kbps
Width : 640 pixels
Height : 272 pixels
Display aspect ratio : 2.35:1
Frame rate mode : Variable
Frame rate : 25.000 fps
Minimum frame rate : 2.646 fps
Maximum frame rate : 25.000 fps
Color space : YUV
Chroma subsampling : 4:2:0
Bit depth : 8 bits
Scan type : Progressive
Bits/(Pixel*Frame) : 0.099
Stream size : 472 MiB (72%)
Writing library : x264 core 120
Encoding settings : cabac=1 / ref=1 / deblock=1:0:0 / analyse=0x1:0x111 / me=hex / subme=2 / psy=1 / psy_rd=1.00:0.00 / mixed_ref=0 / me_range=16 / chroma_me=1 / trellis=0 / 8x8dct=0 / cqm=0 / deadzone=21,11 / fast_pskip=1 / chroma_qp_offset=0 / threads=6 / sliced_threads=0 / nr=0 / decimate=1 / interlaced=0 / bluray_compat=0 / constrained_intra=0 / bframes=3 / b_pyramid=2 / b_adapt=1 / b_bias=0 / direct=1 / weightb=1 / open_gop=0 / weightp=1 / keyint=250 / keyint_min=25 / scenecut=40 / intra_refresh=0 / rc_lookahead=10 / rc=crf / mbtree=1 / crf=22.0 / qcomp=0.60 / qpmin=3 / qpmax=69 / qpstep=4 / ip_ratio=1.40 / aq=1:1.00
Encoded date : UTC 2013-04-07 11:32:13
Tagged date : UTC 2013-04-07 12:03:33
Color primaries : BT.601 NTSC
Transfer characteristics : BT.709
Matrix coefficients : BT.601

Audio
ID : 2
Format : AAC
Format/Info : Advanced Audio Codec
Format profile : LC
Codec ID : 40
Duration : 2h 33mn
Bit rate mode : Variable
Bit rate : 160 Kbps
Maximum bit rate : 203 Kbps
Channel(s) : 2 channels
Channel positions : Front: L R
Sampling rate : 48.0 KHz
Compression mode : Lossy
Delay relative to video : 230ms
Stream size : 175 MiB (27%)
Encoded date : UTC 2013-04-07 11:32:13
Tagged date : UTC 2013-04-07 12:03:32



image

image

image

image

image

image

Note : This is not my rip i have shared this from Tktorrents.net

Sharing Widget


Download torrent
651.83 MB
seeders:0
leechers:0
Baadshah (2013) - Telugu - DVDSCR - 1CD - APPLE - Team TKT



To share this torrent use the code below and insert it into comments, status messages, forum posts or your signature.

Torrent: Baadshah (2013) - Telugu - DVDSCR - 1CD - APPLE - Team TKT

Trackers

tracker name
udp://tracker.openbittorrent.com:80/announce
udp://tracker.istole.it:80/announce
udp://tracker.publicbt.com:80/announce
http://exodus.desync.com/announce
http://tracker.ex.ua/announce
udp://11.rarbg.com:80/announce
http://exodus.desync.com:6969/announce
udp://fr33dom.h33t.com:3310/announce
udp://fr33domtracker.h33t.com:3310/announce
udp://ipv4.tracker.harry.lu:80/announce
ĀµTorrent compatible trackers list

Locations

name
KickassTorrents
Torrent hash: CF55FA015B3F9F9B38FC1F91BD606EB63F727CD6

Uploader Comments

2
aravind0171430
Uploader
audio: 5video: 5
Heavy Seeding Started...
EnJoY.... :)
1
anonymous
good print without cuttings full movie download n watch it........
1
aravind0171430
Uploader
Its without cuttings.....
EnJoY....
0
anonymous
pls upload seethama vakitlo sirimalle chettu... pls pls need very nice print. tys
1
aravind0171430
Uploader
BluRay, DVD and VCD to be released on 27 of April

All Comments

audio
4/10
video
4/10
please, leave only comments related to that torrent
Sign In

audio: 1video: 1
hall print dont download this
are there subtitles in it
bro can u please upload bluray print of baadsha plzzz
not so good wait for good print
audio: 4video: 4
cam print.
Show More All
audio: 3video: 3

User Opinions

Report a bug