AVATAR,Bluray 3D rip@eng (LiG)-Re upload

seeders: 0
leechers: 0
updated:
Added in Movies > 3D Movies
Torrent verified. Downloaded 42 times.

AVATAR,Bluray 3D rip@eng (LiG)-Re upload (Size: 17.97 GB)
  Avatar 3D.mkv 17.41 GB
  info.txt 2.08 KB
  MP4 audio stream

Description

AVATAR (2009) 1080p MKV 3D
>>Reuploaded

PLOT:
A paraplegic marine dispatched to the moon Pandora on a unique mission becomes torn between following his orders and protecting the world he feels is his home.

INFO:
Format : Matroska
File size : 17.4 GiB
Duration : 2h 41mn
Overall bit rate : 15.4 Mbps
Movie name : AVATAR
Writing library : libebml v0.7.8 + libmatroska v0.8.1

Video
ID : 1
Format : AVC
Format/Info : Advanced Video Codec
Format profile : High@L5.1
Format settings, CABAC : Yes
Format settings, ReFrames : 2 frames
Muxing mode : Container profile=Unknown@5.1
Codec ID : V_MPEG4/ISO/AVC
Duration : 2h 41mn
Bit rate : 13.6 Mbps
Width : 1 920 pixels
Height : 1 080 pixels
Display aspect ratio : 16:9
Frame rate : 23.976 fps
Color space : YUV
Chroma subsampling : 4:2:0
Bit depth : 8 bits
Scan type : Progressive
Bits/(Pixel*Frame) : 0.273
Stream size : 15.4 GiB (88%)
Writing library : x264 core
Color primaries : BT.709-5, BT.1361, IEC 61966-2-4, SMPTE RP177
Transfer characteristics : BT.709-5, BT.1361
Matrix coefficients : BT.709-5, BT.1361, IEC 61966-2-4 709, SMPTE RP177

Audio
ID : 2
Format : DTS
Format/Info : Digital Theater Systems
Codec ID : A_DTS
Duration : 2h 41mn
Bit rate mode : Constant
Bit rate : 1 510 Kbps
Channel(s) : 6 channels
Channel positions : Front: L C R, Side: L R, LFE
Sampling rate : 48.0 KHz
Bit depth : 24 bits
Stream size : 1.71 GiB (10%)

>>WITH NAVI PARTS SUBTITLES
>>Higher bitrate
>>2 pass encoding

+the folder cortains mp4 audio stream/engish/5.1 channels/512kbps


!!YOU NEED 3D EQUIPMENT TO WATCH THIS!!

(LiG)

Sharing Widget


Download torrent
17.97 GB
seeders:0
leechers:0
AVATAR,Bluray 3D rip@eng (LiG)-Re upload



To share this torrent use the code below and insert it into comments, status messages, forum posts or your signature.

Torrent: AVATAR,Bluray 3D rip@eng (LiG)-Re upload

Trackers

tracker name
http://nemesis.1337x.org/announce
http://tracker.bittorrent.am/announce
http://genesis.1337x.org:1337/announce
udp://tracker.openbittorrent.com:80/announce
udp://glotorrents.pw:6969/announce
udp://tracker.publicbt.com:80/announce
udp://tracker.coppersurfer.tk:6969/announce
udp://tracker.opentrackr.org:1337/announce
µTorrent compatible trackers list

Locations

name
ThePirateBay
ExtraTorrent
Torrent hash: b354e169a8f9dc8c306d76a6ed408b5500f8b905

All Comments

audio
8/10
video
8/10
please, leave only comments related to that torrent
Sign In

i got an sansung 7 seies 55 inch TV(3D enabled)... Will i be able to view this movie using 3d glasses? Do i have to do anything?
cn i play this on my laptop by using one of those 3d softwares for movies on my laptop with 3d glasses, its HP amd sempron ze2113us / ze2000...it came out back in 2004. or can it run on LCD?? again with core duo processor, using 3d glasses + software to run 3d movies, if there is any?? pls lemme know here or email hornytoads@gmail.com. best H.Toad!
can i ply this on LED monitor???

how do i get the Navi subtitels
worked it out :)
Prob sound like idiot but how do you play it as 3d? Playing through VLC and it come up as split screen. Am hooking up laptop to 3D TV but dont know how the merge two VLC screens to make 3d. any advice would be awesome
use km player to get the single screen or to watch the 3D as 2d movie
Your TV's 3D mode should be able to set it for Side by Side.

audio: 10video: 10
uploADED ABT 2 GB ALREADY
Show More All
audio: 10video: 10

User Opinions

UltraRound98.47K, Fireman58444525, getSUM777, 123pirate370, GaLLaD3308, sum1251, andtastic234, ozzy195377, Patrolman9546, JNGpc200415 ... And 111 more
Reynaldo19913606, daddyman326880, vvs31309, Tyseven118, dustin1823272, llgreg65, donmed63, peperoni56, pttitans20, MicahLee7 ... And 5 more
Report a bug