Apocalypse.Now.Redux.DVDRIP-ZEKTORM

seeders: 4
leechers: 1
updated:
Added in Movies
Torrent verified. Downloaded 296 times.

Summary:

During the Vietnam War, Captain Willard is sent on a dangerous mission into Cambodia to assassinate a renegade colonel who has set himself up as a god among a local tribe.

Written by 5fingerdis65.73K
Apocalypse.Now.Redux.DVDRIP-ZEKTORM (Size: 825.86 MB)
  Apocalypse.Now.Redux.DVDRIP-ZEKTORM.mp4 800.31 MB
  read.hlp 12.79 KB
  Subs

Description



Title : Apocalypse Now

Year : 1979

Genre : Action | Drama | War

iMDB Rate : User Rating: 8.6/10 141,193

iMDB URL : http://www.imdb.com/title/tt0078788/
/>
Awards : Won 2 Oscars. Another 13 wins & 32 nominations



Complete name : Apocalypse.Now.Redux.DVDRIP-ZEKTORM.mp4

Format : MPEG-4

Format profile : Base Media

Codec ID : isom

File size : 800 MiB

Duration : 3h 13mn (Redux)

Overall bit rate : 577 Kbps

Subtitles : English, Spanish (Format: VobSub)

Source : DVD PAL

Encoded date : UTC 2009-01-13 19:08:09



Video

Format : AVC

Format/Info : Advanced Video Codec

Format profile : High@L4.1

Format settings, CABAC : Yes

Format settings, ReFrames : 10 frames

Codec ID : avc1

Codec ID/Info : Advanced Video Coding

Duration : 3h 13mn

Bit rate mode : Variable

Bit rate : 486 Kbps

Maximum bit rate : 5318 Kbps

Width : 704 pixels

Height : 496 pixels

Display aspect ratio : 2.065

Frame rate mode : Constant

Frame rate : 25.000 fps

Resolution : 24 bits

Colorimetry : 4:2:0

Scan type : Progressive

Bits/(Pixel*Frame) : 0.056

Stream size : 674 MiB (84%)

Title : Video

Writing library : x264 core 60 r900 a9af942



Audio

Format : AAC

Format/Info : Advanced Audio Codec

Format version : Version 4

Format profile : LC

Format settings, SBR : Yes

Format settings, PS : No

Codec ID : 40

Duration : 3h 13mn

Bit rate mode : Variable

Bit rate : 87.8 Kbps

Maximum bit rate : 121 Kbps

Channel(s) : 2 channels

Channel positions : L R

Sampling rate : 48.0 KHz

Resolution : 16 bits

Stream size : 122 MiB (15%)

Title : English

Language : English



Notes : Convert to DVD with Nero

Sharing Widget


Download torrent
825.86 MB
seeders:4
leechers:1
Apocalypse.Now.Redux.DVDRIP-ZEKTORM



To share this torrent use the code below and insert it into comments, status messages, forum posts or your signature.

Torrent: Apocalypse.Now.Redux.DVDRIP-ZEKTORM

Trackers

tracker name
udp://tracker.torrentbox.com:2710/announce
udp://tracker.openbittorrent.com:80/announce
udp://tracker.publicbt.com:80/announce
udp://tracker.istole.it:80/announce
udp://open.demonii.com:1337/announce
udp://tracker.ccc.de:80/announce
http://tracker1.torrentum.pl:6969/announce
udp://inferno.demonoid.com:3417/announce
ĀµTorrent compatible trackers list

Locations

name
Mininova
BTjunkie
SumoTorrent
SumoTorrent
SumoTorrent
BTjunkie
Torrent hash: ddfbf1328698cddb1a5051412cdc1ab585facdb6

All Comments

audio
8/10
video
8/10
please, leave only comments related to that torrent
Sign In

audio: 9video: 9
excelent!
audio: 9video: 9
Spooky movie!!!
My only regret in life after today will be not watching this movie sooner. Good torrent as well.
English subtitles?
audio: 8video: 8
Thanks lollol
audio: 10video: 10
thanks
audio: 9video: 9
Thanks good qulity audio: 9 video: 9
Show More All

User Opinions

Naskal6601, mosthated24912662, Moglee1632, donedeal1081, Gaco258280, noskill173, andcuri81, littlefriend42068, amoghactor37, slickenstein26 ... And 542 more
uqd3339, stevepc293, razaal203, The Virus 89124, chet_torrents110, k_arun00427, rodrigofaria26, Debbie64, chrisshoey2, Aspphire1 ... And 18 more
Report a bug Open chat