Apartment.1303.2012.BRRip XViD juggs

seeders: 7
leechers: 2
updated:
Added by juggs657.98K in Movies
Torrent verified. Downloaded 131 times.

Summary:

A modern ghost story which turns a love/hate relationship between mother and daughter into a tale of horror. Some rentals are too good to be true.

Written by MoonChild19.8K
Apartment.1303.2012.BRRip XViD juggs (Size: 707.79 MB)
  Apartment.1303.2012.BRRip XViD juggs.avi 697.02 MB
  Torrent downloaded from extratorrent.com.txt 339 bytes
  sample.avi 10.77 MB

Description

image

Source : CHD(Thanks)

http://www.imdb.com/title/tt1540767/

Format : AVI
Format/Info : Audio Video Interleave
File size : 697 MiB
Duration : 1h 25mn
Overall bit rate : 1 143 Kbps
Writing library : VirtualDub build 32842/release

Video
ID : 0
Format : MPEG-4 Visual
Format profile : Advanced Simple@L5
Format settings, BVOP : 2
Format settings, QPel : No
Format settings, GMC : No warppoints
Format settings, Matrix : Default (H.263)
Muxing mode : Packed bitstream
Codec ID : XVID
Codec ID/Hint : XviD
Duration : 1h 25mn
Bit rate : 1 006 Kbps
Width : 640 pixels
Height : 272 pixels
Display aspect ratio : 2.35:1
Frame rate : 23.976 fps
Color space : YUV
Chroma subsampling : 4:2:0
Bit depth : 8 bits
Scan type : Progressive
Compression mode : Lossy
Bits/(Pixel*Frame) : 0.241
Stream size : 613 MiB (88%)
Writing library : XviD 64

Audio
ID : 1
Format : MPEG Audio
Format version : Version 1
Format profile : Layer 3
Codec ID : 55
Codec ID/Hint : MP3
Duration : 1h 25mn
Bit rate mode : Constant
Bit rate : 128 Kbps
Channel(s) : 2 channels
Sampling rate : 48.0 KHz
Compression mode : Lossy
Stream size : 78.0 MiB (11%)
Alignment : Split accross interleaves
Interleave, duration : 42 ms (1.00 video frame)
Interleave, preload duration : 500 ms
Writing library : LAME3.99r
Encoding settings : -m s -V 4 -q 3 -lowpass 17 -b 128

image
image
image

[embed=youtube]http://www.youtube.com/watch?v=EHYZzdZ22GA[/embed]

Related Torrents

torrent name size files age seed leech

Sharing Widget


Download torrent
707.79 MB
seeders:7
leechers:2
Apartment.1303.2012.BRRip XViD juggs



To share this torrent use the code below and insert it into comments, status messages, forum posts or your signature.

Torrent: Apartment.1303.2012.BRRip XViD juggs

Trackers

tracker name
udp://tracker.publicbt.com:80/announce
http://tracker.ex.ua/announce
udp://tracker.openbittorrent.com:80/announce
udp://9.rarbg.com:2710/announce
udp://coppersurfer.tk:6969/announce
udp://glotorrents.pw:6969/announce
udp://tracker4.piratux.com:6969/announce
udp://open.demonii.com:1337/announce
udp://www.h33t.com:3310/announce
udp://ipv4.tracker.harry.lu:80/announce
µTorrent compatible trackers list

Locations

name
KickassTorrents
ThePirateBay
ExtraTorrent
Torrent hash: 808665684FD64F56C7255259BD075D42B5F22EC2

All Comments

audio
8/10
video
8/10
please, leave only comments related to that torrent
Sign In

audio: 9video: 9
Good. Thanks.
i like to see a rating on how good the movies is. why don't you add a 3rd rating and grade it Audio: 9 Video: 9 Movie: 4
Good quality, but man this movie stinks.
audio: 9video: 8
Great quality upload thank you very much, but holy crap what a bad movie.
audio: 10video: 10
Audio and Video is excellent!!
Thank you so much! loveliness
audio: 8video: 8
....nice copy
audio: 10video: 10
juggs does a brilliant craft of giving you quality uploads. For those that are still virgins here, we do not give a flying ficks arse on the actual film, but the quality of the upload. If you cannot understand this, then slit your wrists and exit this realm. Thank you and have a wonderful day.
Show More All

User Opinions

persia882548, sugali1499, supermate1356, kidzrback1316, meromio1292, huntinglee912, 5minsAnarchy751, qrajber235, ncoates67, Neurogothic49 ... And 454 more
amayita6400, slaynx6136, cboe1486, Flash11241174, john_erickson636, kristi_viper598, imeiyou561, issac82342, tbradford28251, Zaice83 ... And 17 more
Report a bug