Advertising (remove)

Angelica Bella - I giochi Anali delle Porno Sorelline - Retro Anal Movie

seeders: 2
leechers: 2
Added on May 25, 2012 by TSkull571 in XXX > Video
Downloaded 10 times.

Angelica Bella - I giochi Anali delle Porno Sorelline - Retro Anal Movie (Size: 845.25 MB)
  0 bytes
  Angelica Bella - I giochi Anali delle Porno Sorelline.avi 845.25 MB
Advertising (remove)

Description

Image 1.
Image 2.
Image 3.
Image 4.
Image 5.


General
Complete name : E:\Letoplt2\Angelica Bella - I giochi Anali delle Porno Sorelline[torrents.ru]\Angelica Bella - I giochi Anali delle Porno Sorelline.avi
Format : DivX
Format/Info : Hack of AVI
File size : 845 MiB
Duration : 1h 19mn
Overall bit rate : 1 483 Kbps

Video
ID : 0
Format : MPEG-4 Visual
Format settings, BVOP : No
Format settings, QPel : No
Format settings, GMC : No warppoints
Format settings, Matrix : Default (H.263)
Codec ID : DX50
Codec ID/Hint : DivX 5
Duration : 1h 19mn
Bit rate : 1 249 Kbps
Width : 720 pixels
Height : 576 pixels
Display aspect ratio : 5:4
Frame rate : 25.000 fps
Standard : PAL
Color space : YUV
Chroma subsampling : 4:2:0
Bit depth : 8 bits
Scan type : Progressive
Compression mode : Lossy
Bits/(Pixel*Frame) : 0.120
Stream size : 712 MiB (84%)
Writing library : DivX 1586

Audio
ID : 1
Format : MPEG Audio
Format version : Version 1
Format profile : Layer 3
Codec ID : 55
Codec ID/Hint : MP3
Duration : 1h 19mn
Bit rate mode : Constant
Bit rate : 224 Kbps
Channel(s) : 2 channels
Sampling rate : 48.0 KHz
Compression mode : Lossy
Stream size : 128 MiB (15%)
Alignment : Split accross interleaves
Interleave, duration : 40 ms (1.00 video frame)
Interleave, preload duration : 500 ms

Sharing Widget


Download torrent
845.25 MB
seeders:2
leechers:2
Angelica Bella - I giochi Anali delle Porno Sorelline - Retro Anal Movie

Trackers

tracker name Status checked seeders leechers downloads
udp://tracker.istole.it:80/announce
outdated 24 Oct 2014 - - -
udp://tracker.publicbt.com:80/announce
outdated 24 Oct 2014 - - -
udp://9.rarbg.com:2710/announce
outdated 24 Oct 2014 - - -
http://inferno.demonoid.me:3418/announce
outdated 25 May 2012 - - -
http://tracker.istole.it/announce
outdated 25 May 2012 - - -
http://ipv4.tracker.harry.lu/announce
outdated 25 May 2012 - - -
udp://11.rarbg.com:80/announce
private 09 Nov 2013 - - -
http://tracker.publicbt.com/announce
deleted 11 Mar 2013 - - -
udp://fr33domtracker.h33t.com:3310/announce
deleted 25 May 2012 - - -
udp://10.rarbg.com:80/announce
private 24 Oct 2014 1 2 10
ĀµTorrent compatible trackers list

Locations

name
KickassTorrents
Torrent hash: 8225C0C1095949DE6A32AA7CA05AEEF82256F2CF

All Comments

audio
0/10
video
0/10
please, leave only comments related to that torrent
or sign-in

User Opinions

Report a bug