American Reunion (2012) DVDRip XviD-MAXSPEED

seeders: 3
leechers: 1
updated:
Added by piratepedia758.14K in Movies
Torrent verified. Downloaded 51 times.

  • add American Pie 4 to bookmarks
  • Release date: 07 January 2012
  • Writers: Jon Hurwitz (screenplay), Hayden Schlossberg (screenplay), Adam Herz (characters)
  • Language: English
Summary:

Over a decade has passed and the gang return to East Great Falls, Michigan, for the weekend. They will discover how their lives have developed as they gather for their high school reunion. How has life treated Michelle, Jim, Heather, Oz, Kevin, Vicky, Finch, Stifler, and Stifler's mom? In the summer of 1999, it was four boys on a quest to lose their virginity. Now Kara is a cute high school senior looking for the perfect guy to lose her virginity to.

Written by ROBBREDD6824.64K
American Reunion (2012) DVDRip XviD-MAXSPEED (Size: 1.32 GB)
  American Reunion (2012) DVDRip XviD-MAXSPEED www.torentz.3xforum.ro.avi 1.31 GB
  sample.avi 6.61 MB
  screencaps.jpeg 676.44 KB
  American Reunion (2012) DVDRip XviD-MAXSPEED.nfo 3.34 KB
  Torrent downloaded from Demonoid.me.txt 46 bytes
  Torrent downloaded from extratorrent.com.txt 40 bytes
  Torrent downloaded from Rarbg.com.txt 33 bytes
  torrent downloaded from H33T.com.txt 32 bytes

Description

http://www.torentz.3xforum.r...n_2012_DVDRip_XviD-MAXSPEED/
http://www.hotimg.com/direct/WzDpHmq.jpg
Screens:
http://www.hotimg.com/direct/BYqS2SQ.jpg
http://www.hotimg.com/direct/GAwmBT9.jpg
http://www.hotimg.com/direct/B9SQHz8.jpg
http://www.hotimg.com/direct/Me9CmgJ.jpg
Alternative:
http://www.postimg.com/image/74000/photo-73772.jpg
http://www.postimg.com/image/74000/photo-73773.jpg
http://www.postimg.com/image/74000/photo-73774.jpg
http://www.postimg.com/image...photo-73775.jpg

ScreenCaps:
http://www.postimg.com/74000/photo-73776.jpg
.
American Reunion (2012) DVDRip XviD-MAXSPEED
Format : AVI
Format/Info : Audio Video Interleave
Format profile : OpenDML
Format settings : rec
File size : 1.31 GiB
Duration : 1h 53mn
Overall bit rate : 1 652 Kbps
Writing application : VirtualDubMod 1.5.10.2 (build 2542/release)
Writing library : VirtualDubMod build 2542/release
Original source form : MAX TORRENTZ
Copyright : SIGISMUNT
.
Video
ID : 0
Format : MPEG-4 Visual
Format profile : Advanced Simple@L5
Format settings, BVOP : 2
Format settings, QPel : No
Format settings, GMC : No warppoints
Format settings, Matrix : Default (H.263)
Codec ID : XVID
Codec ID/Hint : XviD
Duration : 1h 53mn
Bit rate : 1 263 Kbps
Width : 624 pixels
Height : 336 pixels
Display aspect ratio : 1.85:1
Frame rate : 23.976 fps
Color space : YUV
Chroma subsampling : 4:2:0
Bit depth : 8 bits
Scan type : Progressive
Compression mode : Lossy
Bits/(Pixel*Frame) : 0.251
Stream size : 1.00 GiB (76%)
Writing library : XviD 1.2.1 (UTC 2008-12-04)
.
Audio
ID : 1
Format : AC-3
Format/Info : Audio Coding 3
Mode extension : CM (complete main)
Format settings, Endianness : Big
Codec ID : 2000
Duration : 1h 53mn
Bit rate mode : Constant
Bit rate : 384 Kbps
Channel(s) : 6 channels
Channel positions : Front: L C R, Side: L R, LFE
Sampling rate : 48.0 KHz
Bit depth : 16 bits
Compression mode : Lossy
Stream size : 313 MiB (23%)
Alignment : Aligned on interleaves
Interleave, duration : 64 ms (1.53 video frames)
Interleave, preload duration : 192 ms
.
Source: DVD (perfect a/v/sync quality,sample included)
.
This torrent is not seedbox supported,please seed it to the MAX
.
Note:If you have something to offer as early releases,seedboxes,
links,accounts,etc please contact us on torentz 3xforum ro
.
How To Get Your Maxspeed (uTorrent)
Torrent Client - Preferences - Bandwidth - Number of connections - Set aprox. 500 for each 
Torrent Client - Preferences - BiTorrent - Protocol Encryption - Forced
Bandwidth Allocation - High (Set download/upload limit - Unlimited)
Stop Other Active Torrents - Start downloading and wait for connections.
Enjoy and Seed for at least 1:1 ratio. Don't forget to say thanks/leave reviews.
Before downloading you should check/google search sample "release name""sample".
Greets to all actual/future p2p/scene QUALITY groups and affiliate websites.
Don't trust IMDb robot or bad ratings,always watch some trailers first.
Ignore stupid comments/fake/mislabeled/no-DVDrips/CAM/TS/RAR uploads.
Please spread this release/torrent to your friends/forums/etc.
If you need translation subs visit some subtitles sites.
Report if you see online streaming or other spam links.
Recommended movie player VLC PLAYER.

Related Torrents

torrent name size files age seed leech

Sharing Widget


Download torrent
1.32 GB
seeders:3
leechers:1
American Reunion (2012) DVDRip XviD-MAXSPEED



To share this torrent use the code below and insert it into comments, status messages, forum posts or your signature.

Torrent: American Reunion (2012) DVDRip XviD-MAXSPEED

Trackers

tracker name
udp://tracker.openbittorrent.com:80/announce
udp://tracker.publicbt.com:80/announce
udp://tracker.istole.it:80/announce
udp://tracker.1337x.org:80/announce
http://exodus.desync.com:6969/announce
udp://fr33domtracker.h33t.com:3310/announce
ĀµTorrent compatible trackers list

Locations

name
KickassTorrents
Torrent hash: 0F10527A707C7742EA0D65145CA3AFFDFE54383F

Top Comments

29
TheMentalist1943
i trust PIRATEPEDIA to upload the best of torrents.. i would download this even before reading the comments.. thanks buddy you always rock.. :)
27
piratepedia758.14K
Uploader
yes
3
anonymous
Its piratepedia... i can assure the quality.. close ur eyes and download..
2
GeorgeCR71584
audio: 9video: 9
winkwinkwinkwinkIt's piratepedia and MAXSPEED.....just download it now without any second though!!Thanks just magnificent!!!smilesmilesmilesmile

All Comments

audio
9/10
video
9/10
please, leave only comments related to that torrent
Sign In

audio: 10video: 10
good quality
audio: 10video: 10
Thank you goog quality :D
audio: 9video: 9
Brilliant A & V. Great movie. Thanks
Very Nice Upload!
audio: 10video: 10
Excellent quality... ty uploader
Show More All

User Opinions

Dankestbuds1354, toxictoadz1243, olhos1077, zoone735, martinowp565, swrt75285, baillieashton205, viliukas113, TheUnknown159, wsw678929 ... And 1352 more
runami2112, fletchers1195, hope468, Krispy_Pigeon360, simosece117, coldyahya59, inners40, extremKTM33, dammad959727, massimo81 ... And 50 more
Report a bug Open chat