Amelia 2009 DVDRip XviD-Emery

seeders: 3
leechers: 0
updated:
Added in Movies
Torrent verified. Downloaded 81 times.

Summary:

A look at the life of legendary American pilot Amelia Earhart, who disappeared while flying over the Pacific Ocean in 1937 in an attempt to make a flight around the world.

Written by 5fingerdis65.72K
Available in versions: 720pHDRiPDVDRip
Amelia 2009 DVDRip XviD-Emery (Size: 705.05 MB)
  Amelia.2009.DVDRip.XviD-Emery.avi 705.05 MB
  emery.nfo 3.96 KB

Description

General
Complete name : Amelia.2009.DVDRip.XviD-Emery.avi
Format : AVI
Format/Info : Audio Video Interleave
File size : 705 MiB
Duration : 1h 51mn
Overall bit rate : 885 Kbps
Writing application : VirtualDubMod 1.5.10.2 (build 2540/release)
Writing library : VirtualDubMod build 2540/release

Video
ID : 0
Format : MPEG-4 Visual
Format profile : AdvancedSimple@L5
Format settings, BVOP : Yes
Format settings, QPel : No
Format settings, GMC : No warppoints
Format settings, Matrix : Default (H.263)
Muxing mode : Packed bitstream
Codec ID : XVID
Codec ID/Hint : XviD
Duration : 1h 51mn
Bit rate : 748 Kbps
Width : 640 pixels
Height : 272 pixels
Display aspect ratio : 2.35:1
Frame rate : 23.976 fps
Resolution : 24 bits
Colorimetry : 4:2:0
Scan type : Progressive
Bits/(Pixel*Frame) : 0.179
Stream size : 596 MiB (84%)
Writing library : XviD 1.2.1 (UTC 2008-12-04)

Audio
ID : 1
Format : MPEG Audio
Format version : Version 1
Format profile : Layer 3
Format settings, Mode : Joint stereo / MS Stereo
Codec ID : 55
Codec ID/Hint : MP3
Duration : 1h 51mn
Bit rate mode : Constant
Bit rate : 128 Kbps
Channel(s) : 2 channels
Sampling rate : 48.0 KHz
Resolution : 16 bits
Stream size : 102 MiB (14%)
Alignment : Aligned on interleaves
Interleave, duration : 42 ms (1.00 video frame)
Interleave, preload duration : 504 ms

Sharing Widget


Download torrent
705.05 MB
seeders:3
leechers:0
Amelia 2009 DVDRip XviD-Emery



To share this torrent use the code below and insert it into comments, status messages, forum posts or your signature.

Torrent: Amelia 2009 DVDRip XviD-Emery

Trackers

tracker name
udp://tracker.openbittorrent.com:80/announce
udp://tracker.publicbt.com:80/announce
http://tracker.openbittorrent.com/announce
http://tracker.publicbt.com/announce
ĀµTorrent compatible trackers list

Locations

name
ThePirateBay
ExtraTorrent
TorrentPortal
Torrent hash: 4b7a7dec9e4934182b2d94490f64de6fa969a5ee

All Comments

audio
9/10
video
9/10
please, leave only comments related to that torrent
Sign In

well seeded and no issues other than the movie itself which is very light viewing. One of the few movies I didn't save
audio: 10video: 10
top notch quality!
audio: 9video: 9
Perfect copy. Good biographic movie.
great picture/sound thanks
great picture/sound thanks
great picture/sound thanks
great pic and sound thanks !
Show More All

User Opinions

Captainwest7132, Rostie376, Cookie29202, hue93, Mos-c48, kgirl11426, ajmsantos23, rjripper17, jslo520312, marymo1 ... And 9 more
Report a bug Open chat