Across the Line The Exodus of Charlie Wright 2010 DvDRip x264 Fe

seeders: 0
leechers: 0
updated:
Added in Movies
Torrent verified. Downloaded 10 times.

Summary:

The story centers on Charlie, a Los Angeles billionaire financial whiz who goes into self-imposed exile in Tijuana after his empire is revealed to have been a Ponzi scheme. While looking for the woman he abandoned there 25 years before, Charlie is pursued by a Mexican gangster, a federal agent and thugs sent by a former client looking to retrieve his money.

Written by Pahly220.68K
Available in versions: HDRiPDVDRip
Across the Line The Exodus of Charlie Wright 2010 DvDRip x264 Fe (Size: 1.23 GB)
  Across the Line The Exodus of Charlie Wright 2010 DvDRip x264 Feel-Free.mkv 1.23 GB
  Across the Line The Exodus of Charlie Wright 2010 DvDRip x264... 670.64 KB
  vlcsnap-2010-12-18-13h48m59s66.png 435.12 KB
  vlcsnap-2010-12-18-13h49m18s1.png 347.14 KB
  vlcsnap-2010-12-18-13h48m30s28.png 320 KB
  vlcsnap-2010-12-18-13h49m38s201.png 299.01 KB
  vlcsnap-2010-12-18-13h49m55s122.png 271.78 KB
  Across the Line The Exodus of Charlie Wright 2010 DvDRip x264 Feel-Free.nfo 2.31 KB

Description

Genre:Crime | Drama
Language:English
IMDb:http://www.imdb.com/title/tt1663193/
Source:DVD


Format : Matroska
File size : 1.23 GiB
Duration : 1h 34mn
Overall bit rate : 1 863 Kbps


Video
Format settings, CABAC : Yes
Format settings, ReFrames : 4 frames
Codec ID : V_MPEG4/ISO/AVC
Duration : 1h 34mn
Bit rate : 1 500 Kbps
Width : 720 pixels
Height : 384 pixels
Display aspect ratio : 1.875
Frame rate mode : Variable
Frame rate : 23.976 fps
Color space : YUV
Chroma subsampling : 4:2:0
Bit depth : 8 bits
Scan type : Progressive
Bits/(Pixel*Frame) : 0.226
Stream size : 973 MiB (77%)
Writing library : x264 core 106 r1732 b20059a

Audio
ID : 2
Format : AC-3
Format/Info : Audio Coding 3
Mode extension : CM (complete main)
Codec ID : A_AC3
Duration : 1h 34mn
Bit rate mode : Constant
Bit rate : 384 Kbps
Channel(s) : 6 channels
Channel positions : Front: L C R, Side: L R, LFE
Sampling rate : 48.0 KHz
Bit depth : 16 bits
Video delay : -1mn 5s
Stream size : 259 MiB (21%)
Language : English


Plot:
The story centers on Charlie, a Los Angeles billionaire financial whiz who goes into self-imposed exile in Tijuana after his empire is revealed to have been a Ponzi scheme






==================================
http://thepiratebay.org/user/hiest
==================================






Screen Shots:

http://www.rapidhdd.com/imag...p-2010-12-18-13h48m30s28.png

http://www.rapidhdd.com/imag...p-2010-12-18-13h48m59s66.png

http://www.rapidhdd.com/imag...ap-2010-12-18-13h49m18s1.png

http://www.rapidhdd.com/imag...-2010-12-18-13h49m38s201.png

http://www.rapidhdd.com/imag...-2010-12-18-13h49m55s122.png

Related Torrents

torrent name size files age seed leech

Sharing Widget


Download torrent
1.23 GB
seeders:0
leechers:0
Across the Line The Exodus of Charlie Wright 2010 DvDRip x264 Fe



To share this torrent use the code below and insert it into comments, status messages, forum posts or your signature.

Torrent: Across the Line The Exodus o...e Wright 2010 DvDRip x264 Fe

Trackers

tracker name
udp://tracker.openbittorrent.com:80/announce
udp://tracker.publicbt.com:80/announce
http://tracker.openbittorrent.com/announce
http://exodus.1337x.org/announce
http://genesis.1337x.org:1337/announce
http://nemesis.1337x.org/announce
http://tracker.publicbt.com/announce
ĀµTorrent compatible trackers list

Locations

name
ThePirateBay
1337x
Limetorrents
ExtraTorrent
BTjunkie
Torrent hash: 623d65df8b7e77780dd0bc082a8cd99d715865b7

All Comments

audio
9/10
video
9/10
please, leave only comments related to that torrent
Sign In

audio: 9video: 9
thank u
audio: 9video: 9
Great quality! Thanks!
audio: 10video: 10
Great Upload.. Good Movie

User Opinions

EDMoney6183, Phoenix675628, Fireman58444525, tictoc2427, richieblue2321, zara_babu1979, mrhand18642, dontpanic265, AGENT_47230, ltbill3516181 ... And 8 more
vanavana288
Report a bug