40 Days And Nights 2012 DVDRip English [SOURAVFILE]

seeders: 0
leechers: 0
updated:
Added by dead_113.39K in Movies
Downloaded 10 times.

Summary:

When a colossal tectonic shift causes the sea level to start rising, a microbiologist gathers the DNA of as many species as she can, while the military creates an "ark" in a desperate attempt to preserve life on Earth.

Written by TheStrength54.86K
Available in versions: 720pBlu-RayDVDRip
40 Days And Nights 2012 DVDRip English [SOURAVFILE] (Size: 682.93 MB)
  40 Days And Nights 2012 DVDRip English [SOURAVFILE].mkv 682.93 MB
  Torrent Downloaded from digtorrent.org.txt 346 bytes
  Torrent downloaded from souravfile torrents on BTScene.eu.txt 69 bytes

Description

http://hostpicturefree.com/images/11hrh.gif
Cover:
http://www.toopmovie10.in/wp...1/40Days-And-Nights-2012.jpg
Release info:
General
Format : Matroska
Format version : Version 2
File size : 683 MiB
Duration : 1h 26mn
Overall bit rate : 1 109 Kbps


Video
ID : 1
Format : MPEG-4 Visual
Format profile : Advanced Simple@L5
Format settings, BVOP : Yes
Format settings, QPel : No
Format settings, GMC : No warppoints
Format settings, Matrix : Default (H.263)
Codec ID : V_MS/VFW/FOURCC / XVID
Codec ID/Hint : XviD
Duration : 1h 26mn
Bit rate : 959 Kbps
Width : 640 pixels
Height : 352 pixels
Display aspect ratio : 16:9
Frame rate mode : Constant
Frame rate : 23.976 fps
Color space : YUV
Chroma subsampling : 4:2:0
Bit depth : 8 bits
Scan type : Progressive
Compression mode : Lossy
Bits/(Pixel*Frame) : 0.177
Stream size : 591 MiB (86%)
Language : English
Default : Yes
Forced : No

Audio
ID : 2
Format : MPEG Audio
Format version : Version 1
Format profile : Layer 3
Mode : Joint stereo
Mode extension : MS Stereo
Muxing mode : Header stripping
Codec ID : A_MPEG/L3
Codec ID/Hint : MP3
Duration : 1h 26mn
Bit rate mode : Constant
Bit rate : 128 Kbps
Channel(s) : 2 channels
Sampling rate : 44.1 KHz
Compression mode : Lossy
Stream size : 78.8 MiB (12%)
Writing library : LAME3.98.2
Language : English
Default : Yes
Forced : No

Source:
credit to original movie ripper MARGiN (Thanks)

IMDB Info:
When a colossal tectonic shift causes the sea level to start rising, a microbiologist gathers the DNA of as many species as she can, while the military creates an "ark" in a desperate attempt to preserve life on Earth.

Director: Peter Geiger
Writer: H. Perry Horton
Stars: Alex Carter, Christianna Carmine and Emily Sandifer

Genres: Action


http://www.imdb.com/title/tt2439946/
Screen Shot:
http://www.shotpix.com/images/07057372733031970633.jpg
http://www.shotpix.com/images/30846444166286299789.jpg
http://www.shotpix.com/images/83250309927704282425.jpg
http://www.shotpix.com/images/38858657063064327596.jpg
http://www.shotpix.com/images/80440570438502184243.jpg
http://www.shotpix.com/images/24950120702418965061.jpg
http://www.shotpix.com/images/08680052307009878216.jpg
http://www.shotpix.com/images/08038986173679330128.jpg

Sharing Widget


Download torrent
682.93 MB
seeders:0
leechers:0
40 Days And Nights 2012 DVDRip English [SOURAVFILE]



To share this torrent use the code below and insert it into comments, status messages, forum posts or your signature.

Torrent: 40 Days And Nights 2012 DVDRip English [SOURAVFILE]

Trackers

tracker name
udp://9.rarbg.com:2710/announce
udp://tracker.publicbt.com:80/announce
udp://tracker.openbittorrent.com:80/announce
udp://tracker.istole.it:80/announce
http://tracker.ex.ua/announce
http://exodus.desync.com:6969/announce
udp://fr33domtracker.h33t.com:3310/announce
http://fr33dom.h33t.com:3310/announce
http://torrentuniverse.in/announce.php
µTorrent compatible trackers list

Locations

name
KickassTorrents
Torrent hash: 9D6CE27EF3CA68D65BC6C21F92E47F09AA555920








All Comments

audio
9/10
video
9/10
please, leave only comments related to that torrent
Sign In

audio: 9video: 9
excellent thanks
reliable quality as always man!! Thx again for the effort!
audio: 9video: 9
Terrible Film, but thanks for sharing... Quality good but awful awful movie to watch, i wished the wave had swallowed me up!
audio: 9video: 10
thank you for sharing
audio: 9video: 9
Thumbs Up!
audio: 10video: 10
excellent,thanx
audio: 10video: 10
Appreciate Excellent job "ettv" Thank you! Fast Downloads, Prefect keep eem coming smile

User Opinions

ManyWurlds56.28K, maximalla23.76K, 48chev9420, cass16061773, fortunateson1284, alemos249, alexander33209, foundme68, ivecostralis43, ush121a25 ... And 9 more
n_tetra55, ilhangulser41
Report a bug Open chat