28 Days Later 2002 DVDRIP XviD AC3 TRiNiTY

seeders: 0
leechers: 0
updated: 1 week ago
Added on Jan 3, 2013 by stefix320 in Movies
Downloaded 0 times.

Summary:
Four weeks after a mysterious, incurable virus spreads throughout the UK, a handful of survivors try to find sanctuary.
Written by Equilibrium411.51K
report summary
Available in versions: 1080p720pHDRiPDVDDVDRipx264
28 Days Later 2002 DVDRIP XviD AC3 TRiNiTY (Size: 1.37 GB)
  28.Days.Later.2002.DVDRIP.XviD.AC3.TRiNiTY.avi 1.37 GB
  encode info.txt 2.12 KB
  Thank you for Downloading, enjoy....txt 0 bytes

Description

Format : AVI
Format/Info : Audio Video Interleave
File size : 1.37 GiB
Duration : 1h 48mn
Overall bit rate : 1 802 Kbps

Video
ID : 0
Format : MPEG-4 Visual
Format profile : Advanced Simple@L5
Format settings, BVOP : 2
Format settings, QPel : No
Format settings, GMC : No warppoints
Format settings, Matrix : Default (H.263)
Muxing mode : Packed bitstream
Codec ID : XVID
Codec ID/Hint : XviD
Duration : 1h 48mn
Bit rate : 1 346 Kbps
Width : 672 pixels
Height : 352 pixels
Display aspect ratio : 1.909
Frame rate : 25.000 fps
Color space : YUV
Chroma subsampling : 4:2:0
Bit depth : 8 bits
Scan type : Progressive
Compression mode : Lossy
Bits/(Pixel*Frame) : 0.228
Stream size : 1.02 GiB (75%)
Writing library : XviD 1.2.1 (UTC 2008-12-04)

Audio
ID : 1
Format : AC-3
Format/Info : Audio Coding 3
Mode extension : CM (complete main)
Codec ID : 2000
Duration : 1h 48mn
Bit rate mode : Constant
Bit rate : 448 Kbps
Channel(s) : 6 channels
Channel positions : Front: L C R, Side: L R, LFE
Sampling rate : 48.0 KHz
Bit depth : 16 bits
Compression mode : Lossy
Stream size : 348 MiB (25%)
Alignment : Aligned on interleaves
Interleave, duration : 64 ms (1.60 video frames)
Interleave, preload duration : 192 ms

Sharing Widget


Download torrent
1.37 GB
seeders:0
leechers:0
28 Days Later 2002 DVDRIP XviD AC3 TRiNiTY

Trackers

tracker name Status
udp://tracker.istole.it:80/announce
outdated
udp://tracker.publicbt.com:80/announce
outdated
udp://tracker.openbittorrent.com:80/announce
outdated
udp://tracker.ccc.de:80/announce
deleted
udp://fr33domtracker.h33t.com:3310/announce
deleted
µTorrent compatible trackers list

Locations

name
KickassTorrents
Torrent hash: E5352BB38F00B39B92BE7D02E9449E1472FA4E0E

All Comments

audio
0/10
video
0/10
please, leave only comments related to that torrent
or sign-in

Report a bug