[18+]Shunyo E Bukey(2005) DVD Rip EngSub Bengali Movie.avi

seeders: 0
leechers: 0
updated:
Added by dead_113.38K in Movies > Asian
Downloaded 10 times.

Summary:

Shunyo E Buke (Empty canvas) is a 2005 Bengali film directed by Kaushik Ganguly. The film deals with the psyche of men and women and their physical relationship.

Written by Dr.Vinci108.07K
[18+]Shunyo E Bukey(2005) DVD Rip EngSub Bengali Movie.avi (Size: 701.38 MB)
  Shunyo E Buke(2005)-1CD DVD Rip[XviD-MP3].avi 701.38 MB

Description

[18+]Shunyo E Bukey(2005) DVD Rip EngSub Bengali Movie.avi

http://www.shotpix.com/images/40340283456199686156.gif

http://www.btpics.com/images/m3JI9.jpg
Shunyo E Buke (Empty canvas) is a 2005 Bengali film directed by Kaushik Ganguly.[1] The film deals with the psyche of men and women and their physical relationship. After making Warish Ganguly made this second feature film and this film did well in Kolkata and was appreciated in few film festivals
http://www.btpics.com/images/1Qsqb.png
Churni Ganguly.
Kaushik Sen.
Kharaj Mukherjee.
Tota Roychoudhury.
Biswajit Chakraborty.
Rajesh Sharma.
Sudip Mitra.
Guest appearance
Rupa Ganguly.
Soma Dey.
Dipankar Dey.

http://www.btpics.com/images/A9LGR.png
General
Format : AVI
Format/Info : Audio Video Interleave
File size : 701 MiB
Duration : 2h 4mn
Overall bit rate : 790 Kbps
Video #0
ID : 0
Format : MPEG-4 Visual
Format profile : Advanced Simple@L5
Format settings, BVOP : 2
Format settings, QPel : No
Format settings, GMC : No warppoints
Format settings, Matrix : Default (H.263)
Codec ID : XVID
Codec ID/Hint : XviD
Duration : 2h 4mn
Bit rate : 704 Kbps
Width : 560 pixels
Height : 416 pixels
Display aspect ratio : 4:3
Frame rate : 25.000 fps
Color space : YUV
Chroma subsampling : 4:2:0
Bit depth : 8 bits
Scan type : Progressive
Bits/(Pixel*Frame) : 0.121
Stream size : 625 MiB (89%)
http://www.btpics.com/images/UCIwD.png

Audio #1
ID : 1
Format : MPEG Audio
Format version : Version 1
Format profile : Layer 3
Mode : Joint stereo
Mode extension : MS Stereo
Codec ID : 55
Codec ID/Hint : MP3
Duration : 2h 4mn
Bit rate mode : Constant
Bit rate : 80.0 Kbps
Channel(s) : 2 channels
Sampling rate : 32.0 KHz
Compression mode : Lossy
Stream size : 71.1 MiB (10%)
Subtitles
English (Hardcoded & Muxed)
http://bdupload.com/image-A3CA_4FDFAA08.jpg

Sharing Widget


Download torrent
701.38 MB
seeders:0
leechers:0
[18+]Shunyo E Bukey(2005) DVD Rip EngSub Bengali Movie.avi



To share this torrent use the code below and insert it into comments, status messages, forum posts or your signature.

Torrent: [18+]Shunyo E Bukey(2005) DVD Rip EngSub Bengali Movie.avi

Trackers

tracker name
udp://tracker.openbittorrent.com:80/announce
udp://tracker.publicbt.com:80/announce
udp://tracker.istole.it:80/announce
http://bigtorrent.org:2710/announce
http://cpleft.com:2710/announce
http://tracker.torrentbay.to:6969/announce
udp://fr33domtracker.h33t.com:3310/announce
http://www.h33t.com:3310/announce
http://9.rarbg.com:2710/announce
http://bttrack.9you.com/:8080/announce
µTorrent compatible trackers list

Locations

name
KickassTorrents
Torrent hash: 7626E282A3681921F0278B98F55709098F1EAA01











All Comments

audio
9/10
video
9/10
please, leave only comments related to that torrent
Sign In

audio: 9video: 9
Thanks for the upload
audio: 8video: 8
nice one biggrin
thanks.......but plz seed
audio: 10video: 10
Very Good
Please Upload Bengali Film ''Mon Niye''2010..Director-Swapan Saha.. Pls Pls..

User Opinions

therock76750, meraj213867, SM872823, SayantanDas202618, nsd_912510, achilles471670, anandkumar441493, god.of.war85570, rintu.lgl364, shimu143353 ... And 1 more
Report a bug