(18+) Frida [2002] BRRip 720p [Unrated] BRRip 720p x264 Dual Audio [Hindi+English] by K@rtik [ExD Exclusive]

seeders: 3
leechers: 3
Added on Jul 22, 2012 in Movies > Highres Movies
Torrent verified by Mr.Gray53.18K, 2 years and 10 months ago. Downloaded 10 times.

Summary:
A biography of artist Frida Kahlo, who channeled the pain of a crippling injury and her tempestuous marriage into her work.
Written by 5fingerdis60.43K
report summary
Available in versions: 1080p720pDVDRip
(18+) Frida [2002] BRRip 720p [Unrated] BRRip 720p x264 Dual Audio [Hindi+English] by K@rtik [ExD... (Size: 857.3 MB)
  Frida [2002].BRRip.720p [Unrated].BRRip.720p.x264 Dual Audio [Hindi+English].by K@rtik [ExD... 842.46 MB
  Cover.jpg 2.02 MB
  Frida [2002].BRRip.720p [Unrated].BRRip.720p.x264 Dual Audio [Hindi+English].by K@rtik [ExD... 94.61 KB
  Sample

Description

Title says 18+, but has R rating










Rip Information
Code:
Format : Matroska
Format version : Version 2
File size : 842 MiB
Duration : 1h 57mn
Overall bit rate : 1 000 Kbps
Movie name : Frida [2002].BRRip.720p [Unrated].BRRip.720p.x264 Dual Audio [Hindi+English].by K@rtik [ExD Exclusive]
Encoded date : UTC 2012-07-19 16:39:31

Video
Code:
Format : AVC
Format/Info : Advanced Video Codec
Format profile : High@L3.1
Format settings, CABAC : Yes
Format settings, ReFrames : 4 frames
Muxing mode : Header stripping
Codec ID : V_MPEG4/ISO/AVC
Duration : 1h 57mn
Bit rate : 628 Kbps
Nominal bit rate : 562 Kbps
Width : 1 280 pixels
Height : 688 pixels
Display aspect ratio : 1.860
Frame rate : 25.000 fps
Color space : YUV
Chroma subsampling : 4:2:0
Bit depth : 8 bits
Scan type : Progressive
Bits/(Pixel*Frame) : 0.029
Stream size : 529 MiB (63%)
Title : K@rtik
Writing library : x264 core 125 r2200 999b753

Audio 1
Code:
Format : AC-3
Format/Info : Audio Coding 3
Mode extension : CM (complete main)
Format settings, Endianness : Big
Muxing mode : Header stripping
Codec ID : A_AC3
Duration : 1h 57mn
Bit rate mode : Constant
Bit rate : 224 Kbps
Channel(s) : 6 channels
Channel positions : Front: L C R, Side: L R, LFE
Sampling rate : 48.0 KHz
Bit depth : 16 bits
Compression mode : Lossy
Stream size : 189 MiB (22%)
Title : K@rtik
Language : English

Audio 2
Code:
Format : MPEG Audio
Format version : Version 1
Format profile : Layer 3
Mode : Joint stereo
Mode extension : MS Stereo
Muxing mode : Header stripping
Codec ID : A_MPEG/L3
Codec ID/Hint : MP3
Duration : 1h 57mn
Bit rate mode : Constant
Bit rate : 128 Kbps
Channel(s) : 2 channels
Sampling rate : 48.0 KHz
Compression mode : Lossy
Delay relative to video : 8ms
Stream size : 108 MiB (13%)
Title : K@rtik
Writing library : LAMELAME
Language : Hindi
==Team EXD Exclusive==

Original Audio

Sample In Torrent



Related Torrents

torrent name size files age seed leech

Sharing Widget


Download torrent
857.3 MB
seeders:3
leechers:3
(18+) Frida [2002] BRRip 720p [Unrated] BRRip 720p x264 Dual Audio [Hindi+English] by K@rtik [ExD Exclusive]

Trackers

tracker name Status checked seeders leechers downloads
udp://tracker.openbittorrent.com:80/announce
active 19 May 2015 3 3 10
udp://tracker.istole.it:80/announce
outdated 01 Jan 2015 - - -
udp://tracker.publicbt.com:80/announce
outdated 01 Jan 2015 - - -
udp://tracker.1337x.org:80/announce
outdated 08 Mar 2014 - - -
http://exodus.desync.com:6969/announce
blocked 08 Mar 2014 - - -
udp://tracker.ccc.de:80/announce
deleted 08 Mar 2014 - - -
udp://fr33domtracker.h33t.com:3310/announce
deleted 08 Mar 2014 - - -
µTorrent compatible trackers list

Locations

name
ExtraTorrent
Torrent hash: 1647CCD8D6A4788DBF1A1FEC57705B9A6DD4FFF6

Top Comments

19
whattheywant487 • 23 Jul 2012, 21:46
torrent downloaded
audio: 9video: 1
the uploader put his name tag in the bottom of the screen at various points in the movie.... if you are OK with that, its a good upload, personally I think its kind of immature and makes the movie look like a watermarked screener... so low vid score for me

All Comments

audio
8/10
video
7/10
please, leave only comments related to that torrent
or sign-in
0
4346268 • 05 November 2014, 12:01
torrent downloaded
Show comment
audio: 8video: 8
good movie but salma hayek is look not so good
0
anonymous • 21 July 2013, 06:17 Show comment
audio: 8video: 8
0
mikeshot1169 • 19 June 2013, 15:56
torrent downloaded
Show comment
audio: 10video: 10
nice film...audio is also too good
0
iamdeb2517 • 21 November 2012, 08:32 Show comment
audio: 7video: 2
loser....HOW on earth did you get the idea of putting your name everywhere in the movie?????????????????????
0
mirclub356 • 26 September 2012, 07:20
torrent downloaded
Show comment
audio: 7video: 7
Not English sound
0
apurvmax19943566 • 30 August 2012, 08:37
torrent downloaded
Show comment
audio: 8video: 8
thnxxx man!!!
:)
0
mahiealam2261 • 24 August 2012, 16:23
torrent downloaded
Show comment
nice copy
0
minatsadh474 • 15 August 2012, 11:27
torrent downloaded
Show comment
audio: 8video: 8
Show More All

User Opinions

dead_113.18K, Fireman58444510, Negenius4390, mosthated24912487, funkylowlow1539, OnceAThief1399, MadNesSGp949, amisukanta879, lavee872, Jigirk55 ... And 137 more
DarkFriend4439, atamus509, whattheywant487, manperson256, redhatGizmo209, salloo167, ranjohn100, Cherry_Waves78, belitjin50, mrgrumpus0139 ... And 14 more
Report a bug