13 Eerie 2013 DVDRip XviD IGUANA

seeders: 2
leechers: 0
updated:
Added by Acesn8s90.32K in Movies
Torrent verified. Downloaded 73 times.

Summary:

Six forensic undergrads embark on a scientific expedition to a remote island that was once used as illegal biological testing grounds for life-term prisoners.

Written by TimeBandits89.64K
Available in versions: 1080p720pDVDRip
13 Eerie 2013 DVDRip XviD IGUANA (Size: 703.74 MB)
  Torrent downloaded from extratorrent.com.txt 339 bytes
  iguana-13e.xvid.avi 697.1 MB
  iguana-13e.xvid.nfo 14.31 KB
  Proof
  Subs

Description

Complete name : 13.Eerie.2013.DVDRip.XviD-IGUANA
Format : AVI
Format/Info : Audio Video Interleave
File size : 170 MiB
Duration : 1h 26mn
Overall bit rate mode : Variable
Overall bit rate : 274 Kbps
Writing application : VirtualDubMod 1.5.10.2 (build 2540/release)
Writing library : VirtualDubMod build 2540/release

Video
ID : 0
Format : MPEG-4 Visual
Format profile : Advanced Simple@L5
Format settings, BVOP : 2
Format settings, QPel : No
Format settings, GMC : No warppoints
Format settings, Matrix : Default (H.263)
Muxing mode : Packed bitstream
Codec ID : XVID
Codec ID/Hint : XviD
Duration : 1h 26mn
Bit rate : 62.4 Kbps
Width : 640 pixels
Height : 352 pixels
Display aspect ratio : 16:9
Frame rate : 23.976 fps
Color space : YUV
Chroma subsampling : 4:2:0
Bit depth : 8 bits
Scan type : Progressive
Compression mode : Lossy
Bits/(Pixel*Frame) : 0.012
Stream size : 38.6 MiB (23%)
Writing library : XviD 64

Audio
ID : 1
Format : MPEG Audio
Format version : Version 1
Format profile : Layer 3
Mode : Joint stereo
Mode extension : MS Stereo
Codec ID : 55
Codec ID/Hint : MP3
Duration : 1h 26mn
Bit rate mode : Variable
Bit rate : 192 Kbps
Channel(s) : 2 channels
Sampling rate : 48.0 KHz
Compression mode : Lossy
Stream size : 119 MiB (70%)
Alignment : Aligned on interleaves
Writing library : LAME3.90.
Encoding settings : -m j -V 4 -q 2 -lowpass 19.6 --abr 192


Supplier:IGUANA Genre.......:Horror
Ripper..:IGUANA Runtime.....:86 min
Format..:XviD IMDB Rating.:N/A/10
Source..:DVD R1 Store Date..:04/02/13
Size....: Release Date:04/03/13

http://www.imdb.com/title/tt2082152/

Cast: Katharine Isabelle, Brendan Fehr, Brendan Fletcher


Plot: Six ambitious forensic undergrads are pitted
against one another on a scientific expedition
to a remote island

Screens:

http://www.shotpix.com/images/88761322229555074223.png

http://www.shotpix.com/images/25593294283909684945.png

http://www.shotpix.com/images/71202811749812150100.png

http://www.shotpix.com/images/00954268279667573930.png

http://www.shotpix.com/images/14239626365897482631.png

Related Torrents

torrent name size files age seed leech

Sharing Widget


Download torrent
703.74 MB
seeders:2
leechers:0
13 Eerie 2013 DVDRip XviD IGUANA



To share this torrent use the code below and insert it into comments, status messages, forum posts or your signature.

Torrent: 13 Eerie 2013 DVDRip XviD IGUANA

Trackers

tracker name
udp://9.rarbg.com:2710/announce
udp://tracker.istole.it:80/announce
udp://tracker.publicbt.com:80/announce
http://tracker.ex.ua/announce
udp://tracker.openbittorrent.com:80/announce
udp://11.rarbg.com:80/announce
udp://tracker.seedceo.com:2710/announce
udp://fr33dom.h33t.com:3310/announce
udp://fr33domtracker.h33t.com:3310/announce
udp://www.h33t.com:3310/announce
ĀµTorrent compatible trackers list

Locations

name
KickassTorrents
ThePirateBay
ExtraTorrent
Torrent hash: 23E076B6D345A935E1804B9FEE30C251267B3E56

Top Comments

3
suminA453
God, this movie... mixed impression. It was... okay, so here's my unimportant review: bad acting, semi-good filming. Shit ending. There ya have it. Hell, the "zombies" did better acting than the actors, prolly because they didn't have any lines. DL it anyway, guys, you'll watch the whole thing hoping it gets better (like Napoleon Dynamite..) Still 10/10 because it's a good copy. And I'm sure as hell no movie critic... yet ;) Thanks, Uploader!!

All Comments

audio
9/10
video
9/10
please, leave only comments related to that torrent
Sign In

audio: 9video: 9
great rip tx all uppenseedz
audio: 9video: 9
Good quality, sorry movie. D+
audio: 10video: 10
good quality just like a poper movie cheers uploader much appreciated
HEY GOOD QUALITY THANKS<<>>.. oh crap movie--bad bad.. used fast forward quite a bit to ease the pain..
audio: 9video: 9
AVQ9 great rip good film cheers
audio: 10video: 10
Great quality! Thanx!
audio: 9video: 9
Thanks
Show More All

User Opinions

Wolvie187731.51K, MoonChild20.13K, rayron8666, chaseseith4675, BadboyPitbull2455, kidzrback1316, MavsFan411058, 5minsAnarchy751, ghost00356, mdon196947 ... And 198 more
1stLadyAjavon3313, afonchofonsi1955, saion17011218, tilibom366, shortman62313, Dzonsonss34
Report a bug