12 Dates of Christmas 2011 HDTV XviD-NoGRP

seeders: 0
leechers: 3
Added in Movies
Torrent verified. Downloaded 10 times.


12 Dates of Christmas is a romantic comedy that follows Kate, a young woman who re-lives the same first date on Christmas Eve over and over again. In an attempt to win back her ex-boyfriend on Christmas Eve, Kate ends up ruining her blind date with Miles, a handsome guy she's been set up with. In a strange twist of fate, Kate is given the chance to re-live Christmas Eve twelve times! Kate decides to embrace what Christmas Eve has given her -- a loving family, great friends and Miles, who turns out to be a great guy! However, just as she seems to think she has gotten it right, the clock strikes midnight and Kate must live Christmas Eve once again. Under these weird new circumstances, Kate learns to take risks and enjoy what she's been given. Thanks to the gift of Christmas Eve, Kate finds happiness by finally trusting fate.

Written by -Sketch31.63K
12 Dates of Christmas 2011 HDTV XviD-NoGRP (Size: 711.27 MB)
  12.Dates.of.Christmas.2011.HDTV.XviD-NoGRP.avi 701.93 MB
  12.Dates.of.Christmas.2011.HDTV.XviD-NoGRP.nfo 2.01 KB
  READ this before playing the Movie.txt 473 bytes
  sample.avi 9.34 MB
  www.Torrenting.com.txt 473 bytes



http://www.{spam link removed} : Once & For all ;)

www . Torrenting . Com

(((((((((((((= Enjoy No RAR releases =))))))))))))))))))))



Complete name : 12.Dates.of.Christmas.2011.HDTV.XviD-NoGRP.avi
Format : AVI
Format/Info : Audio Video Interleave
File size : 702 MiB
Duration : 1h 25mn
Overall bit rate : 1 144 Kbps

ID : 0
Format : MPEG-4 Visual
Format profile : Advanced Simple@L5
Format settings, BVOP : 2
Format settings, QPel : No
Format settings, GMC : No warppoints
Format settings, Matrix : Default (H.263)
Codec ID : XVID
Codec ID/Hint : XviD
Duration : 1h 25mn
Bit rate : 1 002 Kbps
Width : 624 pixels
Height : 352 pixels
Display aspect ratio : 16:9
Frame rate : 29.970 fps
Color space : YUV
Chroma subsampling : 4:2:0
Bit depth : 8 bits
Scan type : Progressive
Compression mode : Lossy
Bits/(Pixel*Frame) : 0.152
Stream size : 615 MiB (88%)
Writing library : XviD 63

ID : 1
Format : MPEG Audio
Format version : Version 1
Format profile : Layer 3
Codec ID : 55
Codec ID/Hint : MP3
Duration : 1h 25mn
Bit rate mode : Constant
Bit rate : 128 Kbps
Channel(s) : 2 channels
Sampling rate : 48.0 KHz
Compression mode : Lossy
Stream size : 78.5 MiB (11%)
Alignment : Split accross interleaves
Interleave, duration : 24 ms (0.72 video frame)

Related Torrents

torrent name size files age seed leech

Sharing Widget

Download torrent
711.27 MB
12 Dates of Christmas 2011 HDTV XviD-NoGRP

To share this torrent use the code below and insert it into comments, status messages, forum posts or your signature.

Torrent: 12 Dates of Christmas 2011 HDTV XviD-NoGRP


tracker name
ĀµTorrent compatible trackers list


Torrent hash: ac3bfa1379ec90aa73aeea37333184e6c6560169

All Comments

please, leave only comments related to that torrent
Sign In

User Opinions

Report a bug