ÜnOfficially Yours (2012) CAMRip [Pinoy Tagalog]

seeders: 2
leechers: 0
updated: 1 week ago
Added on Mar 14, 2012 by VinSeL11143 in Movies > Asian
Downloaded once.

Summary:
The film deals about a man who falls in love with someone who doesn’t want to fall in love. Macky Galvez, a depressed young man who’s been contemplating on why he had several failed relationships. On the other hand, Ces Bricenio, is a modern-day woman who is afraid of commitments. When their worlds collide, a funny yet sexy love story develops.
Written by Fereroooo59.73K
report summary
Available in versions: DVDRipCam
ÜnOfficially Yours (2012) CAMRip [Pinoy Tagalog] (Size: 700.02 MB)
  UnOfficially Yours (2012) CAMRip x.264 AAC [Pinoy Tagalog].mp4 700.02 MB
  Torrent Downloaded from buhaypirata.net.txt 4.68 KB
  Torrent downloaded from AhaShare.com.txt 59 bytes
  Torrent downloaded from Demonoid.me.txt 46 bytes
  Tune In to our Radio Station.txt 42 bytes

Description

image

ÜnOfficially Yours! Starring Angel Locsin & John Lloyd Cruz. Directed by Cathy Garcia Molina. Showing in cinemas on February 15, 2012!

UnOfficially Yours (2012) CAMRip [Pinoy Tagalog]
NOTE: The language is Tagalog/Filipino

INFO:
File size........................: 700Mb
Genres...........................: Comedy | Romance
Language.........................: Filipino | Tagalog
Country..........................: Philippines
Director.........................: Cathy Garcia-Molina
Writers..........................: EJuan Miguel Sevilla (story)
Release Date.....................: February 15, 2012 (2012-02-15)
Distributed by...................: Star Cinema
IMbd.............................: http://www.imdb.com/title/tt2211191/
Format/Info......................: Advanced Video Codec

VIDEO:
ID : 1
Format : AVC
Format/Info : Advanced Video Codec
Format profile : High@L3.0
Format settings, CABAC : Yes
Format settings, ReFrames : 4 frames
Codec ID : avc1
Codec ID/Info : Advanced Video Coding
Duration : 1h 39mn
Bit rate : 930 Kbps
Maximum bit rate : 2 669 Kbps
Width : 720 pixels
Height : 420 pixels
Display aspect ratio : 16:9
Frame rate mode : Constant
Frame rate : 29.970 fps
Color space : YUV
Chroma subsampling : 4:2:0
Bit depth : 8 bits
Scan type : Progressive
Bits/(Pixel*Frame) : 0.103
Stream size : 663 MiB (95%)
Writing library : x264 core 120 r2164 da19765
Encoding settings : cabac=1 / ref=3 / deblock=0:0:0
Encoded date : UTC 2012-03-04 12:55:38
Tagged date : UTC 2012-03-04 12:56:23

AUDIO:
ID : 2
Format : AAC
Format/Info : Advanced Audio Codec
Format profile : HE-AAC / LC
Codec ID : 40
Duration : 1h 39mn
Bit rate mode : Variable
Bit rate : 48.0 Kbps
Maximum bit rate : 52.3 Kbps
Channel(s) : 2 channels
Channel positions : Front: L R
Sampling rate : 44.1 KHz / 22.05 KHz
Compression mode : Lossy
Stream size : 34.2 MiB (5%)
Encoded date : UTC 2012-03-04 12:56:22
Tagged date : UTC 2012-03-04 12:56:23

CAST:
John Lloyd Cruz as Mackie Galvez
Angel Locsin as Ces Bricenio
Edgar Mortiz
Tetchie Agbayani
Edgar Allan Guzman
K Brosas
Ian De Leon
Patrick Garcia as Vince
Boom Labrusca
Melissa Mendez
Hyubs Azarcon
Mel Kimura
Panying
Patrizha Martinez
Dannielle Martinez
Dana Martinez

PLOT:
The film deals about a man who falls in love with someone who doesn’t want to fall in love.
John LLoyd Cruz plays the role of Macky Galvez, a depressed young man who’s been contemplating
on why he had several failed relationships. On the other hand, Ces Bricenio, portrayed by Angel Locsin,
is a modern-day woman who is afraid of commitments. When their worlds collide,
a funny yet sexy love story develops.

SCREENSHOTS:
image

Category: Movies > CAM
Language: Filipino
Total Size: 700.02 MB
Info Hash: 1a92b51bed20676bfddda70314283709de22162d

Sharing Widget


Download torrent
700.02 MB
seeders:2
leechers:0
ÜnOfficially Yours (2012) CAMRip [Pinoy Tagalog]

Trackers

tracker name Status
http://pow7.com/announce
outdated
http://exodus.desync.com/announce
outdated
udp://tracker.istole.it:80/announce
outdated
udp://tracker.publicbt.com:80/announce
outdated
udp://tracker.openbittorrent.com:80/announce
outdated
udp://tracker.1337x.org:80/announce
outdated
http://exodus.desync.com:6969/announce
blocked
µTorrent compatible trackers list

Locations

name
KickassTorrents
Torrent hash: 1A92B51BED20676BFDDDA70314283709DE22162D

All Comments

audio
5/10
video
5/10
please, leave only comments related to that torrent
or sign-in

1
rrannjith189 • 02 Oct 2013, 18:13
torrent downloaded
Show comment
audio: 8video: 9
Thanks Uploader
0
jamvan01644 • 02 Jun 2013, 18:12 Show comment
audio: 5video: 5
good
Show More All
0
Baaarf2170 • 24 Dec 2013, 07:47
torrent downloaded
Show comment
audio: 5video: 3
0
2.4GHzN20145605 • 24 Sep 2013, 02:33
torrent downloaded
Show comment
audio: 5video: 5
0
inFamous43310 • 10 Jul 2013, 15:52
torrent downloaded
Show comment
audio: 5video: 5
0
firehawk6911.2K • 13 Apr 2013, 05:15
torrent downloaded
Show comment
audio: 6video: 6
0
GladoHelios1121 • 30 Mar 2013, 11:32
torrent downloaded
Show comment
audio: 7video: 8

User Opinions

Torrent_691853, chuck7700721, a1dvd674, Hagar69659, k-tina655, vns015519, Marvin_D.309, apoljuice224, everestl162, razv1i160 ... And 36 more
electsub3214, Shuriken22883, seafoamfairy1691, aiks1348, rsbond700991, Soloist_03673, dementedsoulz42, Harper190116, clickbutiti4, shaynecesz2
Report a bug